<?xml version="1.0" standalone="no"?>
<!DOCTYPE svg PUBLIC "-//W3C//DTD SVG 1.1//EN" "http://www.w3.org/Graphics/SVG/1.1/DTD/svg11.dtd" >
<svg xmlns="http://www.w3.org/2000/svg">
<metadata>Generated by IcoMoon</metadata>
<defs>
<font id="icomoon" horiz-adv-x="1024">
<font-face units-per-em="1024" ascent="960" descent="-64" />
<missing-glyph horiz-adv-x="1024" />
<glyph unicode="&#x20;" horiz-adv-x="512" d="" />
<glyph unicode="&#xe900;" glyph-name="number-one" horiz-adv-x="534" d="M489.739 915.478h-150.297l-286.133-287.926 87.963-92.446 146.622 149.488c13.96 14.233 38.153 4.349 38.153-15.588v-688.485h163.691v934.957zM281.527 614.52l-124.604-127.040c-8.82-8.992-23.337-8.882-32.019 0.243l-118.769 124.821c-8.308 8.731-8.158 22.488 0.337 31.037l307.92 309.85c4.179 4.205 9.862 6.569 15.79 6.569h181.819c12.294 0 22.261-9.967 22.261-22.261v-979.478c0-12.294-9.967-22.261-22.261-22.261h-208.212c-12.294 0-22.261 9.967-22.261 22.261v656.259z" />
<glyph unicode="&#xe901;" glyph-name="number-two" horiz-adv-x="801" d="M756.87-19.478v136.327h-375.937c-21.615 0-30.548 27.701-13.005 40.328 270.509 194.707 381.622 327.939 381.622 472.395 0 171.589-145.283 285.906-351.050 285.906-133.535 0-261.014-47.947-346.341-135.856l89.975-103.19c71.468 66.172 157.928 101.272 260.759 101.272 100.839 0 180.369-56.629 180.369-148.132 0-122.376-88.784-208.749-516.779-522.014v-127.037h690.388zM779.13 161.371c12.294 0 22.261-9.967 22.261-22.261v-180.849c0-12.294-9.967-22.261-22.261-22.261h-734.91c-12.294 0-22.261 9.967-22.261 22.261v160.594c0 7.102 3.388 13.777 9.121 17.969 419.411 306.694 507.658 391.69 507.658 492.748 0 63.035-56.984 103.61-135.847 103.61-98.891 0-179.566-35.996-246.061-104.632-9.068-9.36-24.202-8.963-32.767 0.86l-118.581 135.998c-7.326 8.402-7.308 20.926 0.042 29.307 94.051 107.248 240.248 165.284 392.976 165.284 228.331 0 395.572-131.594 395.572-330.428 0-152.564-103.161-286.586-345.214-468.202h330.273z" />
<glyph unicode="&#xe902;" glyph-name="number-three" horiz-adv-x="801" d="M400.696-19.478c216.209 0 356.174 104.655 356.174 256.372 0 112.447-94.733 194.149-204.462 205.308-25.748 2.619-27.054 39.654-1.554 44.080 109.147 18.944 191.628 96.32 191.628 194.149 0 144.107-127.622 235.048-340.346 235.048-142.084 0-256.54-47.14-337.432-129.517l75.303-93.257c68.664 57.771 151.066 88.175 240.545 88.175 118.538 0 200.686-47.875 200.686-134.567 0-82.531-76.122-123.194-199.247-123.194-22.837 0-35.22 0.014-50.113 0.079-19.144 0.084-34.905 0.236-47.056 0.483v-135.417c26.611 0.945 67.15 1.677 97.169 1.677 144.063 0 215.076-40.491 215.076-131.724 0-87.912-79.596-143.096-203.564-143.096-93.476 0-193.4 36.78-262.387 97.358l-79.916-101.36c74.62-80.331 199.355-130.598 349.497-130.598zM801.391 236.893c0-179.58-162.244-300.893-400.696-300.893-171.109 0-313.912 61.376-395.593 160.188-6.681 8.082-6.816 19.731-0.323 27.966l106.48 135.051c8.338 10.575 24.083 11.383 33.46 1.717 60.145-62.005 158.382-101.28 248.782-101.28 102.121 0 159.042 39.464 159.042 98.575 0 59.936-47.819 87.202-170.554 87.202-41.213 0-104.353-1.462-117.241-2.735-13.096-1.294-24.45 8.994-24.45 22.153v181.964c0 13.015 11.117 23.254 24.087 22.186 8.576-0.706 32.633-1.115 67.685-1.268 14.808-0.065 27.145-0.079 49.919-0.079 101.794 0 154.726 28.276 154.726 78.672 0 55.675-58.975 90.045-156.165 90.045-85.936 0-164.038-31.613-227.879-92.001-9.43-8.92-24.462-7.913-32.617 2.187l-102.163 126.522c-6.859 8.494-6.545 20.709 0.74 28.84 89.929 100.364 221.116 158.094 383.503 158.094 234.704 0 384.868-107.004 384.868-279.569 0-95.459-61.147-173.586-149.391-213.757 93.426-37.44 163.78-121.364 163.78-229.781z" />
<glyph unicode="&#xe903;" glyph-name="number-four" horiz-adv-x="846" d="M675.396-19.478v180.39c0 12.294 9.967 22.261 22.261 22.261h103.735v139.039h-103.735c-12.294 0-22.261 9.967-22.261 22.261v571.006h-252.648l-378.226-596.559v-135.747h445.095c12.294 0 22.261-9.967 22.261-22.261v-180.39h163.518zM719.917 138.651v-180.39c0-12.294-9.967-22.261-22.261-22.261h-208.039c-12.294 0-22.261 9.967-22.261 22.261v180.39h-445.095c-12.294 0-22.261 9.967-22.261 22.261v164.47c0 4.221 1.2 8.355 3.46 11.92l388.243 612.357c4.082 6.439 11.176 10.341 18.801 10.341h287.153c12.294 0 22.261-9.967 22.261-22.261v-571.006h103.735c12.294 0 22.261-9.967 22.261-22.261v-183.56c0-12.294-9.967-22.261-22.261-22.261h-103.735zM511.878 344.472c0-12.294-9.967-22.261-22.261-22.261h-263.712c-17.634 0-28.267 19.527-18.699 34.34l263.712 408.238c12.042 18.641 40.96 10.113 40.96-12.079v-408.238zM467.356 366.733v310.491l-200.57-310.491h200.57z" />
<glyph unicode="&#xe904;" glyph-name="number-five" horiz-adv-x="801" d="M393.474-19.478c222.585 0 363.396 120.646 363.396 310.964 0 171.875-124.731 289.326-286.842 289.326-77.768 0-151.624-29.357-196.597-74.272-14.028-14.010-37.991-4.074-37.991 15.751v235.132c0 12.294 9.967 22.261 22.261 22.261h434.172v135.795h-617.017v-513.053l114.651-30.071c58.561 51.743 125.712 75.548 208.302 75.548 119.017 0 195.59-64.816 195.59-165.071 0-95.861-81.332-165.071-201.367-165.071-97.556 0-185.918 33.153-253.581 94.506l-86.589-108.37c81.458-80.458 195.309-123.374 341.615-123.374zM279.96 569.215c51.778 35.072 119.641 56.118 190.067 56.118 186.122 0 331.364-136.765 331.364-333.847 0-216.565-162.14-355.485-407.918-355.485-166.407 0-296.639 52.635-387.591 151.437-7.442 8.084-7.872 20.389-1.013 28.973l114.108 142.811c8.403 10.517 24.145 11.227 33.46 1.51 61.102-63.734 145.018-98.449 239.591-98.449 96.897 0 156.846 51.014 156.846 120.55 0 73.869-55.148 120.55-151.068 120.55-75.84 0-134.663-22.229-186.895-71.785-5.588-5.301-13.519-7.338-20.969-5.383l-142.996 37.506c-9.788 2.567-16.613 11.413-16.613 21.533v552.489c0 12.294 9.967 22.261 22.261 22.261h661.539c12.294 0 22.261-9.967 22.261-22.261v-180.316c0-12.294-9.967-22.261-22.261-22.261h-434.172v-165.947z" />
<glyph unicode="&#xe905;" glyph-name="number-six" horiz-adv-x="801" d="M455.753 915.478c-254.104 0-411.232-184.009-411.232-468.189 0-286.096 132.152-466.767 379.173-466.767 196.375 0 333.175 127.829 333.175 303.284 0 175.785-123.861 286.225-294.147 286.225-87.418 0-176.804-48.646-219.904-112.456-11.087-16.414-36.48-11.261-40.292 8.176-0.862 4.395-1.36 8.576-1.603 13.024-0.176 3.226-0.207 5.599-0.207 11.162 0 164.727 107.374 290.942 255.037 290.942 73.74 0 128.58-19.156 179.765-61.327l66.16 114.92c-65.669 51.473-151.215 81.007-245.925 81.007zM462.723 614.553c193.809 0 338.669-129.163 338.669-330.747 0-200.744-157.382-347.806-377.697-347.806-275.155 0-423.694 203.075-423.694 511.289 0 307.347 175.364 512.711 455.753 512.711 112.35 0 213.81-37.877 289.214-103.566 8.021-6.987 9.977-18.673 4.67-27.892l-89.207-154.954c-7.223-12.546-24.309-14.969-34.736-4.926-49.283 47.47-97.724 67.695-169.941 67.695-109.502 0-192.816-85.382-208.024-206.111 55.769 50.559 135.608 84.306 214.993 84.306zM412.544 115.121c-126.805 0-198.992 88.692-210.339 212.138-0.52 5.66 1.144 11.304 4.652 15.777 48.625 61.99 121.87 98.082 198.718 98.082 112.449 0 195.1-59.557 195.1-164.42 0-88.028-77.922-161.577-188.131-161.577zM412.544 159.643c86.177 0 143.609 54.209 143.609 117.055 0 76.544-60.166 119.899-150.579 119.899-60.227 0-117.968-27.106-158.087-74.189 11.818-97.841 67.51-162.765 165.056-162.765z" />
<glyph unicode="&#xe906;" glyph-name="number-seven" horiz-adv-x="801" d="M756.87 797.129v118.349h-712.348v-139.039h485.34c16.183 0 26.958-16.72 20.272-31.457l-346.791-764.461h186.725l366.801 816.608zM495.319 731.918h-473.058c-12.294 0-22.261 9.967-22.261 22.261v183.56c0 12.294 9.967 22.261 22.261 22.261h756.87c12.294 0 22.261-9.967 22.261-22.261v-145.38c0-3.144-0.666-6.253-1.954-9.121l-374.658-834.098c-3.592-7.996-11.541-13.14-20.306-13.14h-235.672c-16.183 0-26.958 16.72-20.272 31.457l346.791 764.461z" />
<glyph unicode="&#xe907;" glyph-name="number-eight" horiz-adv-x="801" d="M400.696-19.478c207.994 0 356.174 92.672 356.174 240.734 0 97.701-74.781 182.036-188.475 222.097-19.804 6.978-19.821 34.98-0.025 41.982 111.238 39.347 172.968 105.701 172.968 202.204 0 143.164-145.046 227.94-340.641 227.94-196.459 0-340.641-84.488-340.641-227.94 0-96.859 60.971-163.087 171.556-202.204 19.796-7.002 19.779-35.004-0.025-41.982-113.153-39.871-187.063-124.032-187.063-222.097 0-148.976 147.317-240.734 356.174-240.734zM801.391 221.256c0-178.172-171.223-285.256-400.696-285.256-230.325 0-400.696 106.117-400.696 285.256 0 103.090 65.416 191.417 167.025 242.887-96.234 47.259-151.492 121.449-151.492 223.395 0 174.398 167.35 272.461 385.163 272.461 216.947 0 385.163-98.319 385.163-272.461 0-101.803-55.917-176.005-152.808-223.398 102.182-51.587 168.34-139.975 168.34-242.885zM403.94 521.934c-2.151-0.317-4.338-0.317-6.489 0-97.040 14.297-178.58 59.557-178.58 134.329 0 81.19 75.050 130.302 181.825 130.302 105.563 0 180.413-49.288 180.413-130.302 0-74.787-80.812-120.133-177.168-134.329zM536.587 656.264c0 51.561-51.965 85.78-135.891 85.78-85.159 0-137.303-34.123-137.303-85.78 0-43.036 61.804-77.947 137.302-89.789 74.896 11.76 135.892 46.6 135.892 89.789zM400.696 109.434c-112.151 0-197.358 54.456-197.358 137.41 0 81.404 92.709 133.961 194.189 148.556 2.127 0.306 4.287 0.302 6.414-0.011 101.139-14.901 194.113-67.354 194.113-148.545 0-82.403-87.034-137.41-197.358-137.41zM247.86 246.844c0-53.12 62.224-92.888 152.836-92.888 88.816 0 152.836 40.461 152.836 92.888 0 49.626-72.924 91.422-152.874 104.010-80.297-12.362-152.797-54.118-152.797-104.010z" />
<glyph unicode="&#xe908;" glyph-name="Video" d="M22.261 180.87c-12.294 0-22.261 9.967-22.261 22.261v489.739c0 12.294 9.967 22.261 22.261 22.261h979.478c12.294 0 22.261-9.967 22.261-22.261v-489.739c0-12.294-9.967-22.261-22.261-22.261h-979.478zM44.522 225.391h934.957v445.217h-934.957v-445.217zM22.261 670.609c-12.294 0-22.261 9.967-22.261 22.261v111.304c0 12.294 9.967 22.261 22.261 22.261h979.478c12.294 0 22.261-9.967 22.261-22.261v-111.304c0-12.294-9.967-22.261-22.261-22.261h-979.478zM44.522 715.13h934.957v66.783h-934.957v-66.783zM22.261 69.565c-12.294 0-22.261 9.967-22.261 22.261v111.304c0 12.294 9.967 22.261 22.261 22.261h979.478c12.294 0 22.261-9.967 22.261-22.261v-111.304c0-12.294-9.967-22.261-22.261-22.261h-979.478zM44.522 114.087h934.957v66.783h-934.957v-66.783zM595.788 448l-150.571 75.286v-150.571l150.571 75.286zM400.696 336.696v222.609c0 16.548 17.415 27.311 32.216 19.911l222.609-111.304c16.407-8.204 16.407-31.618 0-39.821l-222.609-111.304c-14.801-7.401-32.216 3.362-32.216 19.911zM356.174 804.174v-111.304c0-29.681-44.522-29.681-44.522 0v111.304c0 29.681 44.522 29.681 44.522 0zM712.348 804.174v-111.304c0-29.681-44.522-29.681-44.522 0v111.304c0 29.681 44.522 29.681 44.522 0zM356.174 203.13v-111.304c0-29.681-44.522-29.681-44.522 0v111.304c0 29.681 44.522 29.681 44.522 0zM712.348 203.13v-111.304c0-29.681-44.522-29.681-44.522 0v111.304c0 29.681 44.522 29.681 44.522 0z" />
<glyph unicode="&#xe909;" glyph-name="Touchtunes" horiz-adv-x="655" d="M655.36 17.92c0-45.243-36.677-81.92-81.92-81.92h-491.52c-45.243 0-81.92 36.677-81.92 81.92v614.4c0 180.973 146.707 327.68 327.68 327.68s327.68-146.707 327.68-327.68v-614.4zM614.4 17.92v614.4c0 158.351-128.369 286.72-286.72 286.72s-286.72-128.369-286.72-286.72v-614.4c0-22.622 18.338-40.96 40.96-40.96h491.52c22.622 0 40.96 18.338 40.96 40.96zM532.48 140.8c0-45.243-36.677-81.92-81.92-81.92h-245.76c-45.243 0-81.92 36.677-81.92 81.92v491.52c0 113.108 91.692 204.8 204.8 204.8s204.8-91.692 204.8-204.8v-491.52zM491.52 140.8v491.52c0 90.486-73.354 163.84-163.84 163.84s-163.84-73.354-163.84-163.84v-491.52c0-22.622 18.338-40.96 40.96-40.96h245.76c22.622 0 40.96 18.338 40.96 40.96zM157.842 892.562l81.92-81.92-28.963-28.963-81.92 81.92 28.963 28.963zM415.598 810.642l81.92 81.92 28.963-28.963-81.92-81.92-28.963 28.963zM20.48 550.4v40.96h614.4v-40.96h-614.4zM20.48 591.36h614.4v-40.96h-614.4v40.96zM143.36 386.56v40.96h368.64v-40.96h-368.64zM143.36 427.52h368.64v-40.96h-368.64v40.96zM143.36 140.8v40.96h368.64v-40.96h-368.64zM143.36 181.76h368.64v-40.96h-368.64v40.96zM143.36 304.64v40.96h368.64v-40.96h-368.64zM143.36 345.6h368.64v-40.96h-368.64v40.96zM143.36 222.72v40.96h368.64v-40.96h-368.64zM143.36 263.68h368.64v-40.96h-368.64v40.96zM20.48 468.48v40.96h614.4v-40.96h-614.4zM20.48 509.44h614.4v-40.96h-614.4v40.96z" />
<glyph unicode="&#xe90a;" glyph-name="Strategic-Partnerships" d="M503.461 90.997c11.386 11.386 11.386 29.868 0.007 41.258-11.403 11.392-29.885 11.392-41.271 0.007l-23.579-23.579c-11.386-11.386-11.386-29.868-0.007-41.258 11.403-11.392 29.885-11.392 41.271-0.007l23.579 23.579zM409.649 38.462c-27.373 27.398-27.373 71.804 0.007 99.184l23.579 23.579c27.38 27.38 71.786 27.38 99.197-0.007 27.373-27.398 27.373-71.804-0.007-99.184l-23.579-23.579c-27.38-27.38-71.786-27.38-99.197 0.007zM441.483 169.781c12.103 12.103 12.103 31.749 0.007 43.856-12.121 12.11-31.766 12.11-43.869 0.007l-60.864-60.864c-12.103-12.103-12.103-31.749-0.007-43.856 12.121-12.11 31.766-12.11 43.869-0.007l60.864 60.864zM307.787 79.96c-28.090 28.116-28.090 73.686 0.007 101.782l60.864 60.864c28.097 28.097 73.667 28.097 101.796-0.007 28.090-28.116 28.090-73.686-0.007-101.782l-60.864-60.864c-28.097-28.097-73.667-28.097-101.796 0.007zM359.563 251.701c12.103 12.103 12.103 31.749 0.007 43.856-12.121 12.11-31.766 12.11-43.869 0.007l-60.864-60.864c-12.103-12.103-12.103-31.749-0.007-43.856 12.121-12.11 31.766-12.11 43.869-0.007l60.864 60.864zM225.867 161.88c-28.090 28.116-28.090 73.686 0.007 101.782l60.864 60.864c28.097 28.097 73.667 28.097 101.796-0.007 28.090-28.116 28.090-73.686-0.007-101.782l-60.864-60.864c-28.097-28.097-73.667-28.097-101.796 0.007zM277.879 334.993c11.789 11.789 11.789 30.926 0.007 42.719-11.807 11.796-30.943 11.796-42.732 0.007l-41.992-41.992c-11.789-11.789-11.789-30.926-0.007-42.719 11.807-11.796 30.943-11.796 42.732-0.007l41.992 41.992zM164.192 264.045c-27.776 27.802-27.776 72.862 0.007 100.645l41.992 41.992c27.783 27.783 72.844 27.783 100.659-0.007 27.776-27.802 27.776-72.862-0.007-100.645l-41.992-41.992c-27.783-27.783-72.844-27.783-100.659 0.007zM550.493 205.828c-7.833 8.16-7.568 21.124 0.592 28.957s21.124 7.568 28.957-0.592l84.729-88.267c9.228-9.612 28.202-8.601 39.047 2.685 9.268 9.662 8.006 25.659-3.731 37.884-7.833 8.159-7.57 21.124 0.59 28.957s21.124 7.57 28.957-0.59c26.062-27.145 29.282-67.982 3.731-94.619-26.332-27.401-72.070-29.839-98.141-2.683l-84.73 88.269zM620.105 269.978c-7.833 8.16-7.568 21.124 0.592 28.957s21.124 7.568 28.957-0.592l84.729-88.267c9.275-9.661 29.823-8.63 40.619 2.605 10.488 10.934 10.488 28.477-0.273 39.691l-16.515 17.902c-7.669 8.314-7.147 21.27 1.167 28.94s21.27 7.147 28.94-1.167l16.235-17.605c25.698-26.766 25.698-69.333-0.006-96.129-26.319-27.388-73.64-29.761-99.714-2.603l-84.73 88.269zM804.718 421.522l61.44 61.44c19.309 19.309 48.272-9.654 28.963-28.963l-61.44-61.44c-19.309-19.309-48.272 9.654-28.963 28.963zM518.055 98.368c-8.029 7.967-8.079 20.934-0.112 28.963s20.934 8.079 28.963 0.112l40.284-39.973c10.903-10.814 28.671-10.814 39.577-0.007 10.817 10.738 10.817 28.074 0.007 38.796-8.031 7.965-8.084 20.932-0.118 28.963s20.932 8.084 28.963 0.118c26.962-26.743 26.962-70.185-0.007-96.959-26.887-26.644-70.397-26.644-97.269 0.010l-40.287 39.976zM989.414 564.395c8.2 7.79 21.163 7.458 28.954-0.742s7.458-21.163-0.742-28.954l-85.333-81.067c-7.905-7.509-20.307-7.509-28.211 0l-221.867 210.773c-8.499 8.074-8.499 21.622 0 29.696l187.733 178.347c8.2 7.79 21.163 7.458 28.954-0.742s7.458-21.163-0.742-28.954l-172.104-163.499 192.132-182.525 71.228 67.666zM297.945 679.253l-172.104 163.499c-8.2 7.79-8.533 20.753-0.742 28.954s20.753 8.533 28.954 0.742l187.733-178.347c8.499-8.074 8.499-21.622 0-29.696l-221.867-210.773c-7.905-7.509-20.307-7.509-28.211 0l-85.333 81.067c-8.2 7.79-8.533 20.753-0.742 28.954s20.753 8.533 28.954 0.742l71.228-67.666 192.132 182.525zM157.842 482.962l61.44-61.44c19.309-19.309-9.654-48.272-28.963-28.963l-61.44 61.44c-19.309 19.309 9.654 48.272 28.963 28.963zM309.248 673.28h180.224c30.037 0 30.037-40.96 0-40.96h-180.224c-30.037 0-30.037 40.96 0 40.96zM380.073 511.496c-15.244-15.381-15.244-40.377 0-55.758 15.144-15.28 39.603-15.28 54.749 0.002l56.065 56.551c60.374 60.954 158.392 60.948 218.774 0.005l151.162-152.518c26.422-26.66 26.422-69.823-0.007-96.513-26.541-26.754-69.634-26.754-96.159 0.008l-69.938 70.583c-7.961 8.035-7.902 21.002 0.133 28.963s21.002 7.902 28.963-0.133l69.937-70.581c10.5-10.594 27.469-10.594 37.972-0.007 10.607 10.712 10.607 28.15 0.007 38.846l-151.164 152.52c-44.359 44.771-116.232 44.775-160.585-0.004l-56.069-56.556c-31.169-31.448-81.762-31.448-112.931 0-31.068 31.347-31.068 82.078 0 113.425l125.758 126.887c3.846 3.88 9.083 6.063 14.546 6.063h234.749c11.311 0 20.48-9.169 20.48-20.48s-9.169-20.48-20.48-20.48h-226.212l-119.749-120.824z" />
<glyph unicode="&#xe90b;" glyph-name="SiriusXM" d="M143.36 253.44c-11.311 0-20.48 9.169-20.48 20.48s9.169 20.48 20.48 20.48h245.76c11.311 0 20.48-9.169 20.48-20.48s-9.169-20.48-20.48-20.48h-245.76zM143.36 376.32c-11.311 0-20.48 9.169-20.48 20.48s9.169 20.48 20.48 20.48h245.76c11.311 0 20.48-9.169 20.48-20.48s-9.169-20.48-20.48-20.48h-245.76zM143.36 499.2c-11.311 0-20.48 9.169-20.48 20.48s9.169 20.48 20.48 20.48h245.76c11.311 0 20.48-9.169 20.48-20.48s-9.169-20.48-20.48-20.48h-245.76zM143.36 130.56c-11.311 0-20.48 9.169-20.48 20.48s9.169 20.48 20.48 20.48h245.76c11.311 0 20.48-9.169 20.48-20.48s-9.169-20.48-20.48-20.48h-245.76zM860.16 335.36c0 90.467-73.373 163.84-163.84 163.84s-163.84-73.373-163.84-163.84c0-90.467 73.373-163.84 163.84-163.84s163.84 73.373 163.84 163.84zM901.12 335.36c0-113.089-91.711-204.8-204.8-204.8s-204.8 91.711-204.8 204.8c0 113.089 91.711 204.8 204.8 204.8s204.8-91.711 204.8-204.8zM737.28 335.36c0 22.592-18.364 40.96-40.96 40.96s-40.96-18.368-40.96-40.96c0-22.592 18.364-40.96 40.96-40.96s40.96 18.368 40.96 40.96zM778.24 335.36c0-45.211-36.7-81.92-81.92-81.92s-81.92 36.709-81.92 81.92c0 45.211 36.7 81.92 81.92 81.92s81.92-36.709 81.92-81.92zM983.040 89.6v491.52c0 22.799-17.438 40.96-38.502 40.96h-865.075c-21.076 0-38.502-18.153-38.502-40.96v-491.52c0-22.807 17.427-40.96 38.502-40.96h865.075c21.064 0 38.502 18.161 38.502 40.96zM1024 89.6c0-45.057-35.396-81.92-79.462-81.92h-865.075c-44.080 0-79.462 36.857-79.462 81.92v491.52c0 45.063 35.382 81.92 79.462 81.92h865.075c44.066 0 79.462-36.863 79.462-81.92v-491.52zM860.16 826.88c0 11.299-9.181 20.48-20.48 20.48s-20.48-9.181-20.48-20.48c0-11.311 9.172-20.48 20.48-20.48s20.48 9.169 20.48 20.48zM901.12 826.88c0-33.936-27.514-61.44-61.44-61.44s-61.44 27.504-61.44 61.44c0 33.921 27.519 61.44 61.44 61.44s61.44-27.519 61.44-61.44zM230.906 622.868c-10.876-3.107-22.211 3.19-25.318 14.066s3.19 22.211 14.066 25.318l573.44 163.84c10.876 3.107 22.211-3.19 25.318-14.066s-3.19-22.211-14.066-25.318l-573.44-163.84z" />
<glyph unicode="&#xe90c;" glyph-name="North-America" d="M20.48 243.2c-11.311 0-20.48 9.169-20.48 20.48v368.64c0 11.311 9.169 20.48 20.48 20.48h983.040c11.311 0 20.48-9.169 20.48-20.48v-368.64c0-11.311-9.169-20.48-20.48-20.48h-983.040zM40.96 284.16h942.080v327.68h-942.080v-327.68zM348.16 386.56c0-11.311-9.169-20.48-20.48-20.48s-20.48 9.169-20.48 20.48v143.36c0 19.924 25.565 28.116 37.145 11.904l65.255-91.357v79.453c0 11.311 9.169 20.48 20.48 20.48s20.48-9.169 20.48-20.48v-143.36c0-19.924-25.565-28.116-37.145-11.904l-65.255 91.357v-79.453zM592.727 379.672c-3.804-10.652-15.523-16.203-26.175-12.399s-16.203 15.523-12.399 26.175l51.2 143.36c6.472 18.122 32.101 18.122 38.574 0l51.2-143.36c3.804-10.652-1.747-22.371-12.399-26.175s-22.371 1.747-26.175 12.399l-31.913 89.357-31.913-89.357zM593.92 396.8c-11.311 0-20.48 9.169-20.48 20.48s9.169 20.48 20.48 20.48h61.44c11.311 0 20.48-9.169 20.48-20.48s-9.169-20.48-20.48-20.48h-61.44zM635.626 269.157c3.025 10.899 14.312 17.282 25.211 14.258s17.282-14.312 14.258-25.211c-27.412-98.776-76.624-197.453-146.548-293.313-6.666-9.138-19.477-11.142-28.615-4.477s-11.142 19.477-4.477 28.615c67.116 92.010 114.124 186.267 140.172 280.127zM496.319 905.867c-7.275 8.661-6.152 21.579 2.508 28.854s21.579 6.152 28.854-2.508c75.099-89.398 124.831-189.208 147.701-295.589 2.377-11.058-4.66-21.95-15.718-24.327s-21.95 4.66-24.327 15.718c-21.444 99.749-68.155 193.496-139.019 277.851zM142.234 625.624c-3.698-10.689-15.361-16.357-26.050-12.658s-16.357 15.361-12.658 26.050c62.091 179.471 223.658 300.504 408.474 300.504 184.774 0 346.338-121.031 408.473-300.5 3.7-10.688-1.964-22.353-12.653-26.053s-22.353 1.964-26.053 12.653c-56.549 163.335-202.861 272.94-369.767 272.94-166.947 0-313.258-109.605-369.766-272.936zM103.577 256.836c-3.78 10.66 1.798 22.367 12.459 26.147s22.367-1.798 26.147-12.459c57.68-162.679 204.14-272.509 369.726-273.084 165.763 0.575 312.227 110.4 369.909 273.084 3.78 10.66 15.486 16.238 26.147 12.459s16.238-15.486 12.459-26.147c-63.321-178.588-224.863-299.719-408.514-300.356-183.474 0.637-345.012 121.774-408.331 300.356zM348.906 258.203c-3.025 10.899 3.359 22.186 14.258 25.211s22.186-3.359 25.211-14.258c26.048-93.86 73.055-188.117 140.172-280.127 6.666-9.138 4.661-21.949-4.477-28.615s-21.949-4.661-28.615 4.477c-69.925 95.86-119.136 194.537-146.548 293.313zM496.317 932.211c7.274 8.662 20.192 9.786 28.854 2.512s9.786-20.192 2.512-28.854c-70.832-84.342-117.539-178.088-139.022-277.86-2.381-11.057-13.275-18.091-24.332-15.71s-18.091 13.275-15.71 24.332c22.909 106.395 72.634 206.199 147.698 295.58zM163.84 161.28c-11.311 0-20.48 9.169-20.48 20.48s9.169 20.48 20.48 20.48h696.32c11.311 0 20.48-9.169 20.48-20.48s-9.169-20.48-20.48-20.48h-696.32zM163.84 693.76c-11.311 0-20.48 9.169-20.48 20.48s9.169 20.48 20.48 20.48h696.32c11.311 0 20.48-9.169 20.48-20.48s-9.169-20.48-20.48-20.48h-696.32z" />
<glyph unicode="&#xe90d;" glyph-name="Music" horiz-adv-x="778" d="M245.76 181.76h-102.4c-56.519 0-102.4-45.881-102.4-102.4 0-56.545 45.866-102.4 102.4-102.4 54.25 0 102.4 49.89 102.4 102.4v102.4zM286.72 79.36c0-74.812-66.156-143.36-143.36-143.36-79.154 0-143.36 64.192-143.36 143.36 0 79.141 64.219 143.36 143.36 143.36h122.88c11.311 0 20.48-9.169 20.48-20.48v-122.88zM634.88 345.6c-56.519 0-102.4-45.881-102.4-102.4 0-56.545 45.866-102.4 102.4-102.4 54.25 0 102.4 49.89 102.4 102.4v102.4h-102.4zM778.24 243.2c0-74.812-66.156-143.36-143.36-143.36-79.154 0-143.36 64.192-143.36 143.36 0 79.141 64.219 143.36 143.36 143.36h122.88c11.311 0 20.48-9.169 20.48-20.48v-122.88zM286.72 202.24h-40.96v536.204c0 8.316 5.029 15.806 12.726 18.955l491.52 201.076c13.473 5.512 28.234-4.398 28.234-18.955v-579.025h-40.96v548.52l-450.56-184.32v-522.454zM749.883 835.545l15.754-37.809-491.52-204.8-15.754 37.809 491.52 204.8z" />
<glyph unicode="&#xe90e;" glyph-name="Messaging" horiz-adv-x="614" d="M573.44 419.087v303.586c0 107.877-90.003 196.367-200.074 196.367h-132.332c-110.071 0-200.074-88.49-200.074-196.367v-303.586c0-107.877 90.003-196.367 200.074-196.367h132.332c110.071 0 200.074 88.49 200.074 196.367zM614.4 419.087c0-130.655-108.495-237.327-241.034-237.327h-132.332c-132.538 0-241.034 106.672-241.034 237.327v303.586c0 130.655 108.495 237.327 241.034 237.327h132.332c132.538 0 241.034-106.672 241.034-237.327v-303.586zM286.72 140.8v122.88c0 27.307 40.96 27.307 40.96 0v-122.88c0-27.307-40.96-27.307-40.96 0zM368.64 366.080c0 33.925-27.506 61.44-61.44 61.44-33.909 0-61.44-27.531-61.44-61.44s27.531-61.44 61.44-61.44c33.934 0 61.44 27.515 61.44 61.44zM409.6 366.080c0-56.543-45.841-102.4-102.4-102.4-56.531 0-102.4 45.869-102.4 102.4s45.869 102.4 102.4 102.4c56.559 0 102.4-45.857 102.4-102.4zM20.48 591.36h225.28c27.307 0 27.307-40.96 0-40.96h-225.28c-27.307 0-27.307 40.96 0 40.96zM20.48 673.28h225.28c27.307 0 27.307-40.96 0-40.96h-225.28c-27.307 0-27.307 40.96 0 40.96zM20.48 755.2h225.28c27.307 0 27.307-40.96 0-40.96h-225.28c-27.307 0-27.307 40.96 0 40.96zM471.040 591.36h122.88c27.307 0 27.307-40.96 0-40.96h-122.88c-27.307 0-27.307 40.96 0 40.96zM471.040 673.28h122.88c27.307 0 27.307-40.96 0-40.96h-122.88c-27.307 0-27.307 40.96 0 40.96zM471.040 755.2h122.88c27.307 0 27.307-40.96 0-40.96h-122.88c-27.307 0-27.307 40.96 0 40.96zM307.2 99.84c-82.941 0-150.82-53.821-162.17-122.88h324.341c-11.35 69.059-79.229 122.88-162.17 122.88zM491.52-64h-368.64c-11.311 0-20.48 9.169-20.48 20.48 0 102.364 92.201 184.32 204.8 184.32s204.8-81.956 204.8-184.32c0-11.311-9.169-20.48-20.48-20.48z" />
<glyph unicode="&#xe90f;" glyph-name="Influencer-Programs" d="M593.92 529.92c0 45.229-36.68 81.92-81.92 81.92-45.265 0-81.92-36.675-81.92-81.92 0-45.27 36.639-81.92 81.92-81.92 45.255 0 81.92 36.665 81.92 81.92zM634.88 529.92c0-67.877-55.003-122.88-122.88-122.88-67.905 0-122.88 54.991-122.88 122.88 0 67.861 54.988 122.88 122.88 122.88 67.864 0 122.88-55.032 122.88-122.88zM512 407.040c-72.241 0-131.975-53.399-141.909-122.88h283.818c-9.934 69.481-69.668 122.88-141.909 122.88zM675.84 243.2h-327.68c-11.311 0-20.48 9.169-20.48 20.48 0 101.805 82.501 184.32 184.32 184.32s184.32-82.515 184.32-184.32c0-11.311-9.169-20.48-20.48-20.48zM983.040 857.6c0 33.909-27.531 61.44-61.44 61.44s-61.44-27.531-61.44-61.44c0-33.909 27.531-61.44 61.44-61.44s61.44 27.531 61.44 61.44zM1024 857.6c0-56.531-45.869-102.4-102.4-102.4s-102.4 45.869-102.4 102.4c0 56.531 45.869 102.4 102.4 102.4s102.4-45.869 102.4-102.4zM921.6-23.040c33.909 0 61.44 27.531 61.44 61.44s-27.531 61.44-61.44 61.44c-33.909 0-61.44-27.531-61.44-61.44s27.531-61.44 61.44-61.44zM921.6-64c-56.531 0-102.4 45.869-102.4 102.4s45.869 102.4 102.4 102.4c56.531 0 102.4-45.869 102.4-102.4s-45.869-102.4-102.4-102.4zM149.385 781.68c-7.997 7.999-7.996 20.966 0.002 28.963s20.966 7.996 28.963-0.002l163.812-163.84c7.997-7.999 7.996-20.966-0.002-28.963s-20.966-7.996-28.963 0.002l-163.812 163.84zM0 857.6c0 56.531 45.869 102.4 102.4 102.4s102.4-45.869 102.4-102.4c0-56.531-45.869-102.4-102.4-102.4s-102.4 45.869-102.4 102.4zM40.96 857.6c0-33.909 27.531-61.44 61.44-61.44s61.44 27.531 61.44 61.44c0 33.909-27.531 61.44-61.44 61.44s-61.44-27.531-61.44-61.44zM102.4-64c-56.531 0-102.4 45.869-102.4 102.4s45.869 102.4 102.4 102.4c56.531 0 102.4-45.869 102.4-102.4s-45.869-102.4-102.4-102.4zM102.4-23.040c33.909 0 61.44 27.531 61.44 61.44s-27.531 61.44-61.44 61.44c-33.909 0-61.44-27.531-61.44-61.44s27.531-61.44 61.44-61.44zM983.040 448c0 33.909-27.531 61.44-61.44 61.44s-61.44-27.531-61.44-61.44c0-33.909 27.531-61.44 61.44-61.44s61.44 27.531 61.44 61.44zM1024 448c0-56.531-45.869-102.4-102.4-102.4s-102.4 45.869-102.4 102.4c0 56.531 45.869 102.4 102.4 102.4s102.4-45.869 102.4-102.4zM0 448c0 56.531 45.869 102.4 102.4 102.4s102.4-45.869 102.4-102.4c0-56.531-45.869-102.4-102.4-102.4s-102.4 45.869-102.4 102.4zM40.96 448c0-33.909 27.531-61.44 61.44-61.44s61.44 27.531 61.44 61.44c0 33.909-27.531 61.44-61.44 61.44s-61.44-27.531-61.44-61.44zM184.32 427.52c-11.311 0-20.48 9.169-20.48 20.48s9.169 20.48 20.48 20.48h143.36c11.311 0 20.48-9.169 20.48-20.48s-9.169-20.48-20.48-20.48h-143.36zM696.32 468.48h143.36c27.307 0 27.307-40.96 0-40.96h-143.36c-27.307 0-27.307 40.96 0 40.96zM681.838 646.802l163.84 163.84c19.309 19.309 48.272-9.654 28.963-28.963l-163.84-163.84c-19.309-19.309-48.272 9.654-28.963 28.963zM845.678 85.358l-102.4 102.4c-19.309 19.309 9.654 48.272 28.963 28.963l102.4-102.4c19.309-19.309-9.654-48.272-28.963-28.963zM149.358 114.322l102.4 102.4c19.309 19.309 48.272-9.654 28.963-28.963l-102.4-102.4c-19.309-19.309-48.272 9.654-28.963 28.963z" />
<glyph unicode="&#xe910;" glyph-name="Global-Licensing" horiz-adv-x="778" d="M40.96-23.040h696.32v708.595l-222.872 233.485h-473.448v-942.080zM0-43.52v983.040c0 11.311 9.169 20.48 20.48 20.48h502.691c5.597 0 10.95-2.291 14.814-6.339l234.589-245.76c3.637-3.81 5.666-8.874 5.666-14.141v-737.28c0-11.311-9.169-20.48-20.48-20.48h-737.28c-11.311 0-20.48 9.169-20.48 20.48zM757.76 693.76c11.311 0 20.48-9.169 20.48-20.48s-9.169-20.48-20.48-20.48h-245.76c-11.311 0-20.48 9.169-20.48 20.48v266.24c0 11.311 9.169 20.48 20.48 20.48s20.48-9.169 20.48-20.48v-245.76h225.28zM143.36 734.72h245.76c27.307 0 27.307-40.96 0-40.96h-245.76c-27.307 0-27.307 40.96 0 40.96zM143.36 570.88h245.76c27.307 0 27.307-40.96 0-40.96h-245.76c-27.307 0-27.307 40.96 0 40.96zM143.36 407.040h143.36c27.307 0 27.307-40.96 0-40.96h-143.36c-27.307 0-27.307 40.96 0 40.96zM368.64 202.24c-26.211 0-40.96-12.317-40.96-40.96s14.749-40.96 40.96-40.96c34.801 0 40.96 2.046 40.96 10.133v71.787h-40.96zM450.56 130.453c0-23.363-12.457-39.324-33.224-46.222-12.528-4.161-23.206-4.871-48.696-4.871-47.363 0-81.92 28.857-81.92 81.92s34.557 81.92 81.92 81.92h61.44c11.311 0 20.48-9.169 20.48-20.48v-92.267zM450.56 222.72c0-11.311-9.169-20.48-20.48-20.48s-20.48 9.169-20.48 20.48v181.818c0 6.624 3.204 12.839 8.599 16.682l204.8 145.862c13.558 9.656 32.361-0.037 32.361-16.682v-218.283c0-11.311-9.169-20.48-20.48-20.48s-20.48 9.169-20.48 20.48v178.554l-163.84-116.69v-171.26zM573.44 304.64c-26.211 0-40.96-12.317-40.96-40.96s14.749-40.96 40.96-40.96c34.801 0 40.96 2.046 40.96 10.133v71.787h-40.96zM655.36 232.853c0-23.363-12.457-39.324-33.224-46.222-12.528-4.161-23.206-4.871-48.696-4.871-47.363 0-81.92 28.857-81.92 81.92s34.557 81.92 81.92 81.92h61.44c11.311 0 20.48-9.169 20.48-20.48v-92.267z" />
<glyph unicode="&#xe911;" glyph-name="Events-n-Experiential-Programs" d="M512-64c-282.77 0-512 229.23-512 512s229.23 512 512 512c282.77 0 512-229.23 512-512s-229.23-512-512-512zM512-23.040c260.148 0 471.040 210.892 471.040 471.040s-210.892 471.040-471.040 471.040c-260.148 0-471.040-210.892-471.040-471.040s210.892-471.040 471.040-471.040zM562.808 446.72c0 45.785-38.801 83.2-87.040 83.2s-87.040-37.415-87.040-83.2c0-45.785 38.801-83.2 87.040-83.2s87.040 37.415 87.040 83.2zM603.768 446.72c0-68.747-57.466-124.16-128-124.16s-128 55.413-128 124.16c0 68.747 57.466 124.16 128 124.16s128-55.413 128-124.16zM567.988 413.652c-8.141 7.852-8.375 20.817-0.523 28.958s20.817 8.375 28.958 0.523l162.354-156.59c29.354-28.306 29.354-70.299-0.013-98.617-28.92-27.839-71.186-27.868-100.116 0.029l-154.148 148.988c-8.133 7.861-8.354 20.826-0.493 28.959s20.826 8.354 28.959 0.493l154.131-148.972c13.041-12.575 30.197-12.564 43.248 0 12.65 12.198 12.65 27.437-0.002 39.637l-162.355 156.591zM543.797 528.989c8.142 7.851 21.107 7.615 28.958-0.527s7.615-21.107-0.527-28.958l-151.997-146.569c-8.142-7.851-21.107-7.616-28.958 0.526s-7.615 21.107 0.527 28.958l151.997 146.569zM614.4 69.12c0-11.311-9.169-20.48-20.48-20.48s-20.48 9.169-20.48 20.48v204.8c0 11.311 9.169 20.48 20.48 20.48s20.48-9.169 20.48-20.48v-204.8zM245.76 39.66c-2.231-0.823-4.644-1.269-7.162-1.26-11.311 0.040-20.447 9.241-20.408 20.552 0.391 110.822-55.508 210.814-169.452 300.892-12.27 9.7-9.577 29.019 4.878 34.993 114.571 47.354 206.841 119.054 277.175 215.311 71.333 97.623 128.697 209.607 172.076 336.019 6.343 18.483 32.501 18.43 38.769-0.078 43.917-129.684 96.703-235.44 158.205-317.291 60.998-81.18 158.701-159.646 293.209-235.022 12.497-7.003 14.127-24.345 3.153-33.554-113.139-94.944-169.216-195.253-169.916-301.477-0.075-11.311-9.304-20.419-20.615-20.344-2.444 0.016-4.786 0.46-6.954 1.26v-1.26h-552.96v1.26zM786.062 79.36c6.844 104.344 61.159 202.16 161.79 293.072-126.29 73.624-219.902 150.774-280.755 231.761-55.476 73.831-103.793 165.502-145.050 274.999-41.943-108.533-94.667-206.284-158.182-293.209-68.391-93.598-156.42-165.478-263.808-215.48 99.673-86.68 152.924-183.93 158.591-291.143h527.415z" />
<glyph unicode="&#xe912;" glyph-name="EMEA" d="M20.48 243.2c-11.311 0-20.48 9.169-20.48 20.48v368.64c0 11.311 9.169 20.48 20.48 20.48h983.040c11.311 0 20.48-9.169 20.48-20.48v-368.64c0-11.311-9.169-20.48-20.48-20.48h-983.040zM983.040 284.16v327.68h-942.080v-327.68h942.080zM286.72 386.56c11.311 0 20.48-9.169 20.48-20.48s-9.169-20.48-20.48-20.48h-61.44c-11.311 0-20.48 9.169-20.48 20.48v163.84c0 11.311 9.169 20.48 20.48 20.48h61.44c11.311 0 20.48-9.169 20.48-20.48s-9.169-20.48-20.48-20.48h-40.96v-122.88h40.96zM614.4 386.56c11.311 0 20.48-9.169 20.48-20.48s-9.169-20.48-20.48-20.48h-61.44c-11.311 0-20.48 9.169-20.48 20.48v163.84c0 11.311 9.169 20.48 20.48 20.48h61.44c11.311 0 20.48-9.169 20.48-20.48s-9.169-20.48-20.48-20.48h-40.96v-122.88h40.96zM389.12 366.080c0-11.311-9.169-20.48-20.48-20.48s-20.48 9.169-20.48 20.48v163.84c0 19.924 25.565 28.116 37.145 11.904l34.535-48.349 34.535 48.349c11.58 16.213 37.145 8.020 37.145-11.904v-163.84c0-11.311-9.169-20.48-20.48-20.48s-20.48 9.169-20.48 20.48v99.933l-14.055-19.677c-8.168-11.435-25.163-11.435-33.331 0l-14.055 19.677v-99.933zM705.628 359.971c-3.374-10.796-14.86-16.813-25.656-13.439s-16.813 14.86-13.439 25.656l51.2 163.84c5.988 19.162 33.107 19.162 39.096 0l51.2-163.84c3.374-10.796-2.643-22.283-13.439-25.656s-22.283 2.643-25.656 13.439l-31.652 101.287-31.652-101.287zM225.28 478.72h40.96c27.307 0 27.307-40.96 0-40.96h-40.96c-27.307 0-27.307 40.96 0 40.96zM552.96 478.72h40.96c27.307 0 27.307-40.96 0-40.96h-40.96c-27.307 0-27.307 40.96 0 40.96zM696.32 417.28h61.44c27.307 0 27.307-40.96 0-40.96h-61.44c-27.307 0-27.307 40.96 0 40.96zM656.218 269.544c3.239 10.837 14.65 16.997 25.487 13.758s16.997-14.65 13.758-25.487c-27.498-92.006-76.827-183.854-146.877-273.027-6.987-8.895-19.862-10.441-28.756-3.454s-10.441 19.862-3.454 28.756c66.99 85.278 113.88 172.583 139.843 259.453zM517.293 884.82c-7.588 8.388-6.94 21.339 1.448 28.927s21.339 6.94 28.927-1.448c75.27-83.201 125.163-176.182 148.125-275.36 2.551-11.019-4.314-22.020-15.333-24.571s-22.020 4.313-24.572 15.333c-21.353 92.228-67.903 178.979-138.595 257.12zM142.071 625.17c-3.949-10.599-15.743-15.99-26.342-12.041s-15.99 15.742-12.041 26.341c62.283 167.167 223.871 279.57 408.311 279.57 184.398 0 345.983-112.4 408.31-279.565 3.951-10.598-1.437-22.393-12.035-26.344s-22.393 1.437-26.344 12.035c-56.357 151.152-202.648 252.915-369.93 252.915-167.323 0-313.614-101.762-369.929-252.91zM103.747 256.374c-4.035 10.567 1.26 22.403 11.827 26.438s22.403-1.26 26.438-11.827c57.489-150.559 203.93-252.531 369.901-253.066 166.139 0.535 312.583 102.502 370.074 253.066 4.035 10.567 15.872 15.862 26.438 11.827s15.862-15.872 11.827-26.438c-63.512-166.331-225.074-278.824-408.339-279.414-183.098 0.59-344.656 113.089-408.166 279.414zM328.538 257.816c-3.239 10.837 2.921 22.248 13.758 25.487s22.248-2.921 25.487-13.758c25.963-86.87 72.852-174.175 139.843-259.453 6.987-8.894 5.441-21.769-3.454-28.756s-21.769-5.441-28.756 3.454c-70.051 89.173-119.38 181.021-146.877 273.027zM476.331 912.297c7.587 8.389 20.538 9.039 28.927 1.452s9.039-20.538 1.452-28.927c-70.661-78.129-117.208-164.879-138.599-257.129-2.555-11.018-13.558-17.879-24.577-15.324s-17.879 13.558-15.325 24.577c23 99.191 72.887 192.166 148.121 275.351zM163.84 202.24h696.32c27.307 0 27.307-40.96 0-40.96h-696.32c-27.307 0-27.307 40.96 0 40.96zM163.84 734.72h696.32c27.307 0 27.307-40.96 0-40.96h-696.32c-27.307 0-27.307 40.96 0 40.96z" />
<glyph unicode="&#xe913;" glyph-name="Digital-Signage" d="M675.84 79.36c11.311 0 20.48-9.169 20.48-20.48s-9.169-20.48-20.48-20.48h-327.68c-11.311 0-20.48 9.169-20.48 20.48s9.169 20.48 20.48 20.48h327.68zM983.040 218.169v582.542c0 8.787-7.142 15.929-15.929 15.929h-910.222c-8.797 0-15.929-7.134-15.929-15.929v-582.542c0-8.795 7.132-15.929 15.929-15.929h910.222c8.787 0 15.929 7.142 15.929 15.929zM1024 218.169c0-31.409-25.48-56.889-56.889-56.889h-910.222c-31.422 0-56.889 25.476-56.889 56.889v582.542c0 31.413 25.467 56.889 56.889 56.889h910.222c31.408 0 56.889-25.48 56.889-56.889v-582.542zM901.12 284.16v450.56h-778.24v-450.56h778.24zM921.6 243.2h-819.2c-11.311 0-20.48 9.169-20.48 20.48v491.52c0 11.311 9.169 20.48 20.48 20.48h819.2c11.311 0 20.48-9.169 20.48-20.48v-491.52c0-11.311-9.169-20.48-20.48-20.48zM409.6 58.88v122.88c0 27.307 40.96 27.307 40.96 0v-122.88c0-27.307-40.96-27.307-40.96 0zM614.4 181.76v-122.88c0-27.307-40.96-27.307-40.96 0v122.88c0 27.307 40.96 27.307 40.96 0z" />
<glyph unicode="&#xe914;" glyph-name="Curio" d="M1024 527.408c0-92.122-40.266-157.024-106.494-197.457-22.87-13.962-47.214-23.949-71.548-30.683-14.708-4.070-26.345-6.18-33.454-6.961-12.221-1.342-23.216 7.477-24.558 19.697s7.477 23.216 19.697 24.558c4.869 0.535 14.196 2.226 26.441 5.615 20.588 5.697 41.165 14.139 60.223 25.773 53.563 32.7 85.172 83.648 85.172 159.457 0 109.837-88.639 196.722-197.501 192.592-8.966-0.34-17.259 4.735-21.036 12.874-45.255 97.511-141.139 160.344-248.942 160.344-145.906 0-266.368-116.846-275.004-265.705-0.79-13.616-13.527-23.326-26.866-20.482-86.277 18.396-165.609-45.083-165.609-133.684 0-79.547 41.548-118.744 107.421-132.579 12.032-2.527 19.737-14.329 17.21-26.361s-14.329-19.737-26.361-17.21c-84.56 17.759-142.792 72.696-142.792 176.15 0 108.56 90.799 189.086 194.814 180.822 20.952 160.534 155.418 283.571 317.186 283.571 120.479 0 228.181-67.511 282.951-173.138 127.491-2.918 229.049-107.229 229.049-237.193zM333.913 91.826h-44.522c-24.57 0-44.522-19.952-44.522-44.522s19.952-44.522 44.522-44.522c23.233 0 44.522 22.053 44.522 44.522v44.522zM378.435 47.304c0-46.712-40.864-89.043-89.043-89.043-49.158 0-89.043 39.885-89.043 89.043s39.885 89.043 89.043 89.043h66.783c12.294 0 22.261-9.967 22.261-22.261v-66.783zM601.043 225.391h-44.522c-24.57 0-44.522-19.952-44.522-44.522 0-24.596 19.934-44.522 44.522-44.522 23.233 0 44.522 22.053 44.522 44.522v44.522zM645.565 180.87c0-46.712-40.864-89.043-89.043-89.043-49.171 0-89.043 39.854-89.043 89.043 0 49.158 39.885 89.043 89.043 89.043h66.783c12.294 0 22.261-9.967 22.261-22.261v-66.783zM378.435 114.087c0-12.294-9.967-22.261-22.261-22.261s-22.261 9.967-22.261 22.261v292.299c0 8.502 4.843 16.262 12.48 19.997l267.13 130.658c14.789 7.234 32.042-3.533 32.042-19.997v-281.908c0-12.294-9.967-22.261-22.261-22.261s-22.261 9.966-22.261 22.261v246.239l-222.609-108.881v-278.406z" />
<glyph unicode="&#xe915;" glyph-name="Brand-n-Content-Strategy" d="M512.004 251.077c0-21.747 17.642-39.385 39.384-39.385h78.768c21.742 0 39.384 17.638 39.384 39.385v39.385h-157.537v-39.385zM708.926 251.077c0-43.5-35.277-78.769-78.769-78.769h-78.768c-43.492 0-78.769 35.269-78.769 78.769v59.077c0 10.876 8.817 19.692 19.692 19.692h196.921c10.876 0 19.692-8.817 19.692-19.692v-59.077zM610.465 192c0-10.896-8.8-19.692-19.692-19.692s-19.692 8.797-19.692 19.692l-19.692-19.692h78.768l-19.692 19.692zM649.849 192c0-32.65-26.436-59.077-59.077-59.077s-59.077 26.427-59.077 59.077c0 10.876 8.817 19.692 19.692 19.692h78.768c10.876 0 19.692-8.817 19.692-19.692zM539.853 566.154l50.919-50.92 50.919 50.92h-101.839zM571.080 310.154v177.231c0 26.256 39.385 26.256 39.385 0v-177.231c0-26.256-39.385-26.256-39.385 0zM703.158 571.922l-98.461-98.462c-7.69-7.69-20.159-7.69-27.849 0l-98.461 98.462c-12.405 12.405-3.619 33.617 13.925 33.617h196.921c17.544 0 26.33-21.211 13.925-33.617zM690.701 307.596c-1.284-9.803-9.639-17.134-19.525-17.134h-160.806c-9.887 0-18.241 7.331-19.525 17.134-5.867 44.779-27.713 80.442-83.691 149.363-33.874 41.746-52.686 93.741-52.686 148.58 0 130.506 105.8 236.308 236.306 236.308s236.306-105.801 236.306-236.308c0-54.839-18.812-106.834-52.692-148.587-55.972-68.914-77.819-104.577-83.686-149.355zM743.81 481.774c28.234 34.796 43.884 78.051 43.884 123.764 0 108.755-88.167 196.923-196.921 196.923s-196.921-88.168-196.921-196.923c0-45.713 15.65-88.968 43.878-123.757 54.104-66.613 79.355-105.505 89.242-151.935h127.601c9.887 46.43 35.138 85.321 89.236 151.928zM866.463-44.308c0-10.876-8.817-19.692-19.692-19.692s-19.692 8.817-19.692 19.692v338.097c0 5.433 2.244 10.624 6.202 14.346 70.992 66.756 111.95 159.063 111.95 258.018 0 195.775-158.685 354.462-354.458 354.462s-354.458-158.686-354.458-354.462c-6.507-16.026-6.507-16.026-6.18-14.357-4.43-4.5-4.43-4.5-8.609-8.727-6.072-6.142-15.176-15.339-27.314-27.593-24.27-24.503-60.673-61.233-109.226-110.207-13.203-13.285-3.835-36.038 14.685-36.038h77.567c10.876 0 19.692-8.817 19.692-19.692v-196.923c0-32.625 26.452-59.077 59.076-59.077h157.537c10.876 0 19.692-8.817 19.692-19.692v-118.154c0-10.876-8.817-19.692-19.692-19.692s-19.692 8.817-19.692 19.692v98.462h-137.845c-54.376 0-98.461 44.086-98.461 98.462v177.231h-57.875c-53.641 0-80.452 65.12-42.637 103.169 48.533 48.953 84.932 85.679 109.196 110.177 12.13 12.246 21.226 21.436 27.288 27.567 1.71 1.73 2.718 2.75 3.494 3.536 4.334 213.768 178.956 385.705 393.76 385.705 217.525 0 393.843-176.319 393.843-393.846 0-107.043-43.159-207.151-118.153-280.752v-329.71z" />
<glyph unicode="&#xe916;" glyph-name="AV-Systems" d="M333.913-19.478c-12.294 0-22.261 9.967-22.261 22.261v578.783c0 12.294 9.967 22.261 22.261 22.261h356.174c12.294 0 22.261-9.967 22.261-22.261v-578.783c0-12.294-9.967-22.261-22.261-22.261h-356.174zM667.826 25.043v534.261h-311.652v-534.261h311.652zM22.261-19.478c-12.294 0-22.261 9.967-22.261 22.261v890.435c0 12.294 9.967 22.261 22.261 22.261h178.087c12.294 0 22.261-9.967 22.261-22.261v-890.435c0-12.294-9.967-22.261-22.261-22.261h-178.087zM44.522 25.043h133.565v845.913h-133.565v-845.913zM823.652-19.478c-12.294 0-22.261 9.967-22.261 22.261v890.435c0 12.294 9.967 22.261 22.261 22.261h178.087c12.294 0 22.261-9.967 22.261-22.261v-890.435c0-12.294-9.967-22.261-22.261-22.261h-178.087zM979.478 25.043v845.913h-133.565v-845.913h133.565zM823.652 425.739h178.087c29.681 0 29.681-44.522 0-44.522h-178.087c-29.681 0-29.681 44.522 0 44.522zM22.261 425.739h178.087c29.681 0 29.681-44.522 0-44.522h-178.087c-29.681 0-29.681 44.522 0 44.522zM578.783 180.87c0 36.893-29.889 66.783-66.783 66.783s-66.783-29.889-66.783-66.783c0-36.893 29.889-66.783 66.783-66.783s66.783 29.889 66.783 66.783zM623.304 180.87c0-61.482-49.822-111.304-111.304-111.304s-111.304 49.822-111.304 111.304c0 61.482 49.822 111.304 111.304 111.304s111.304-49.822 111.304-111.304zM534.261 403.478c0 12.3-9.954 22.261-22.261 22.261s-22.261-9.96-22.261-22.261c0-12.326 9.935-22.261 22.261-22.261s22.261 9.935 22.261 22.261zM578.783 403.478c0-36.915-29.868-66.783-66.783-66.783s-66.783 29.868-66.783 66.783c0 36.882 29.88 66.783 66.783 66.783s66.783-29.9 66.783-66.783z" />
<glyph unicode="&#xe917;" glyph-name="APAC" d="M20.48 243.2c-11.311 0-20.48 9.169-20.48 20.48v368.64c0 11.311 9.169 20.48 20.48 20.48h983.040c11.311 0 20.48-9.169 20.48-20.48v-368.64c0-11.311-9.169-20.48-20.48-20.48h-983.040zM40.96 284.16h942.080v327.68h-942.080v-327.68zM450.56 478.72v30.72h-40.96v-30.72h40.96zM409.6 386.56c0-11.311-9.169-20.48-20.48-20.48s-20.48 9.169-20.48 20.48v143.36c0 11.311 9.169 20.48 20.48 20.48h61.44c22.622 0 40.96-18.338 40.96-40.96v-30.72c0-22.622-18.338-40.96-40.96-40.96h-40.96v-51.2zM778.24 422.907c0 11.311 9.169 20.48 20.48 20.48s20.48-9.169 20.48-20.48c0-31.385-25.443-56.827-56.827-56.827h-4.613c-33.932 0-61.44 27.508-61.44 61.44v61.44c0 33.932 27.508 61.44 61.44 61.44h3.352c32.081 0 58.088-26.007 58.088-58.087 0-11.311-9.169-20.48-20.48-20.48s-20.48 9.169-20.48 20.48c0 9.459-7.668 17.127-17.128 17.127h-3.352c-11.311 0-20.48-9.169-20.48-20.48v-61.44c0-11.311 9.169-20.48 20.48-20.48h4.613c8.763 0 15.867 7.104 15.867 15.867zM224.087 379.672c-3.804-10.652-15.523-16.203-26.175-12.399s-16.203 15.523-12.399 26.175l51.2 143.36c6.472 18.122 32.101 18.122 38.574 0l51.2-143.36c3.804-10.652-1.747-22.371-12.399-26.175s-22.371 1.747-26.175 12.399l-31.913 89.357-31.913-89.357zM551.767 379.672c-3.804-10.652-15.523-16.203-26.175-12.399s-16.203 15.523-12.399 26.175l51.2 143.36c6.472 18.122 32.101 18.122 38.574 0l51.2-143.36c3.804-10.652-1.747-22.371-12.399-26.175s-22.371 1.747-26.175 12.399l-31.913 89.357-31.913-89.357zM225.28 437.76h61.44c27.307 0 27.307-40.96 0-40.96h-61.44c-27.307 0-27.307 40.96 0 40.96zM552.96 437.76h61.44c27.307 0 27.307-40.96 0-40.96h-61.44c-27.307 0-27.307 40.96 0 40.96zM635.626 269.157c3.025 10.899 14.312 17.282 25.211 14.258s17.282-14.312 14.258-25.211c-27.412-98.776-76.624-197.453-146.548-293.313-6.666-9.138-19.477-11.142-28.615-4.477s-11.142 19.477-4.477 28.615c67.116 92.010 114.124 186.267 140.172 280.127zM496.319 905.867c-7.275 8.661-6.152 21.579 2.508 28.854s21.579 6.152 28.854-2.508c75.099-89.398 124.831-189.208 147.701-295.589 2.377-11.058-4.66-21.95-15.718-24.327s-21.95 4.66-24.327 15.718c-21.444 99.749-68.155 193.496-139.019 277.851zM142.234 625.624c-3.698-10.689-15.361-16.357-26.050-12.658s-16.357 15.361-12.658 26.050c62.091 179.471 223.658 300.504 408.474 300.504 184.774 0 346.338-121.031 408.473-300.5 3.7-10.688-1.964-22.353-12.653-26.053s-22.353 1.964-26.053 12.653c-56.549 163.335-202.861 272.94-369.767 272.94-166.947 0-313.258-109.605-369.766-272.936zM103.577 256.836c-3.78 10.66 1.798 22.367 12.459 26.147s22.367-1.798 26.147-12.459c57.68-162.679 204.14-272.509 369.726-273.084 165.763 0.575 312.227 110.4 369.909 273.084 3.78 10.66 15.486 16.238 26.147 12.459s16.238-15.486 12.459-26.147c-63.321-178.588-224.863-299.719-408.514-300.356-183.474 0.637-345.012 121.774-408.331 300.356zM348.906 258.203c-3.025 10.899 3.359 22.186 14.258 25.211s22.186-3.359 25.211-14.258c26.048-93.86 73.055-188.117 140.172-280.127 6.666-9.138 4.661-21.949-4.477-28.615s-21.949-4.661-28.615 4.477c-69.925 95.86-119.136 194.537-146.548 293.313zM496.317 932.211c7.274 8.662 20.192 9.786 28.854 2.512s9.786-20.192 2.512-28.854c-70.832-84.342-117.539-178.088-139.022-277.86-2.381-11.057-13.275-18.091-24.332-15.71s-18.091 13.275-15.71 24.332c22.909 106.395 72.634 206.199 147.698 295.58zM163.84 202.24h696.32c27.307 0 27.307-40.96 0-40.96h-696.32c-27.307 0-27.307 40.96 0 40.96zM163.84 734.72h696.32c27.307 0 27.307-40.96 0-40.96h-696.32c-27.307 0-27.307 40.96 0 40.96z" />
<glyph unicode="&#xe918;" glyph-name="Advertising-Networks" d="M595.187 633.225c5.834 4.062 13.256 5.094 19.977 2.777l43.116-14.866c32.33-11.013 54.068-42.109 54.068-76.802v-29.551c0-30.592-24.3-55.652-54.64-55.652h-291.415c-30.34 0-54.64 25.060-54.64 55.652v29.551c0 34.693 21.738 65.789 53.99 76.775l43.194 14.893c6.72 2.317 14.143 1.285 19.977-2.777l83.187-57.925 83.187 57.925zM380.076 578.992c-14.1-4.803-23.902-18.825-23.902-34.658v-29.551c0-6.305 4.679-11.13 10.119-11.13h291.415c5.439 0 10.119 4.825 10.119 11.13v29.551c0 15.833-9.802 29.855-23.98 34.685l-32.5 11.206-86.625-60.319c-7.645-5.323-17.796-5.323-25.441 0l-86.625 60.319-32.578-11.232zM578.783 770.783c0 36.885-29.908 66.783-66.783 66.783-36.884 0-66.783-29.892-66.783-66.783s29.899-66.783 66.783-66.783c36.875 0 66.783 29.897 66.783 66.783zM623.304 770.783c0-61.477-49.844-111.304-111.304-111.304-61.47 0-111.304 49.822-111.304 111.304s49.834 111.304 111.304 111.304c61.46 0 111.304-49.827 111.304-111.304zM283.535 188.008c5.834 4.062 13.256 5.094 19.977 2.777l43.116-14.866c32.33-11.013 54.068-42.109 54.068-76.802v-29.551c0-30.592-24.3-55.652-54.64-55.652h-291.415c-30.34 0-54.64 25.060-54.64 55.652v29.551c0 34.693 21.738 65.789 53.99 76.775l43.194 14.893c6.72 2.317 14.143 1.285 19.977-2.777l83.187-57.925 83.187 57.925zM68.424 133.775c-14.1-4.803-23.902-18.825-23.902-34.658v-29.551c0-6.305 4.679-11.13 10.119-11.13h291.415c5.439 0 10.119 4.825 10.119 11.13v29.551c0 15.833-9.802 29.855-23.98 34.685l-32.5 11.206-86.625-60.319c-7.645-5.323-17.796-5.323-25.441 0l-86.625 60.319-32.578-11.232zM267.13 325.565c0 36.885-29.908 66.783-66.783 66.783-36.884 0-66.783-29.892-66.783-66.783s29.899-66.783 66.783-66.783c36.875 0 66.783 29.897 66.783 66.783zM311.652 325.565c0-61.477-49.844-111.304-111.304-111.304-61.47 0-111.304 49.822-111.304 111.304s49.834 111.304 111.304 111.304c61.46 0 111.304-49.827 111.304-111.304zM906.839 188.008c5.834 4.062 13.256 5.094 19.977 2.777l43.116-14.866c32.33-11.013 54.068-42.109 54.068-76.802v-29.551c0-30.592-24.3-55.652-54.64-55.652h-291.415c-30.34 0-54.64 25.060-54.64 55.652v29.551c0 34.693 21.738 65.789 53.99 76.775l43.194 14.893c6.72 2.317 14.143 1.285 19.977-2.777l83.187-57.925 83.187 57.925zM691.728 133.775c-14.1-4.803-23.902-18.825-23.902-34.658v-29.551c0-6.305 4.679-11.13 10.119-11.13h291.415c5.439 0 10.119 4.825 10.119 11.13v29.551c0 15.833-9.802 29.855-23.98 34.685l-32.5 11.206-86.625-60.319c-7.645-5.323-17.796-5.323-25.441 0l-86.625 60.319-32.578-11.232zM890.435 325.565c0 36.885-29.908 66.783-66.783 66.783-36.884 0-66.783-29.892-66.783-66.783s29.899-66.783 66.783-66.783c36.875 0 66.783 29.897 66.783 66.783zM934.957 325.565c0-61.477-49.844-111.304-111.304-111.304-61.47 0-111.304 49.822-111.304 111.304s49.834 111.304 111.304 111.304c61.46 0 111.304-49.827 111.304-111.304zM534.261 481.391v-200.348c0-29.681-44.522-29.681-44.522 0v200.348c0 29.681 44.522 29.681 44.522 0zM370.661 130.576c-9.335-8.001-23.388-6.92-31.389 2.415s-6.92 23.388 2.415 31.389l155.826 133.565c8.336 7.146 20.638 7.146 28.974 0l155.826-133.565c9.335-8.001 10.416-22.055 2.415-31.389s-22.054-10.416-31.389-2.415l-141.339 121.148-141.339-121.148z" />
<glyph unicode="&#xe919;" glyph-name="custom-business-solutions" horiz-adv-x="1336" d="M314.142 675.363h-34.712v118.020c0 19.092-15.62 34.712-34.712 34.712s-34.712-15.62-34.712-34.712v-118.020h-34.712c-19.092 0-34.712-15.62-34.712-34.712v-138.847c0-19.092 15.62-34.712 34.712-34.712h34.712v-362.739c0-19.092 15.62-34.712 34.712-34.712s34.712 15.62 34.712 34.712v362.739h34.712c19.092 0 34.712 15.62 34.712 34.712v138.847c0 19.092-15.62 34.712-34.712 34.712zM279.431 536.515h-69.424v69.424h69.424v-69.424zM1152.434 432.38h-34.712v361.003c0 19.092-15.62 34.712-34.712 34.712s-34.712-15.62-34.712-34.712v-361.003h-34.712c-19.092 0-34.712-15.62-34.712-34.712v-138.847c0-19.092 15.62-34.712 34.712-34.712h34.712v-119.756c0-19.092 15.62-34.712 34.712-34.712s34.712 15.62 34.712 34.712v119.756h34.712c19.092 0 34.712 15.62 34.712 34.712v138.847c0 19.092-15.62 34.712-34.712 34.712zM1117.722 293.532h-69.424v69.424h69.424v-69.424zM593.573 376.841h-34.712v414.807c0 19.092-15.62 34.712-34.712 34.712s-34.712-15.62-34.712-34.712v-414.807h-34.712c-19.092 0-34.712-15.62-34.712-34.712v-138.847c0-19.092 15.62-34.712 34.712-34.712h34.712v-64.217c0-19.092 15.62-34.712 34.712-34.712s34.712 15.62 34.712 34.712v64.217h34.712c19.092 0 34.712 15.62 34.712 34.712v138.847c0 19.092-15.62 34.712-34.712 34.712zM558.861 237.993h-69.424v69.424h69.424v-69.424zM873.003 583.376h-34.712v210.007c0 19.092-15.62 34.712-34.712 34.712s-34.712-15.62-34.712-34.712v-210.007h-34.712c-19.092 0-34.712-15.62-34.712-34.712v-138.847c0-19.092 15.62-34.712 34.712-34.712h34.712v-270.753c0-19.092 15.62-34.712 34.712-34.712s34.712 15.62 34.712 34.712v270.753h34.712c19.092 0 34.712 15.62 34.712 34.712v138.847c0 19.092-15.62 34.712-34.712 34.712zM838.292 442.793h-69.424v69.424h69.424v-69.424zM1174.997-58.793h-1020.529c-85.044 0-154.468 69.424-154.468 154.468v706.386c0 85.044 69.424 154.468 154.468 154.468h1020.529c85.044 0 154.468-69.424 154.468-154.468v-706.386c-1.736-85.044-69.424-154.468-154.468-154.468zM152.732 885.369c-46.861 0-85.044-38.183-85.044-85.044v-706.386c0-46.861 38.183-85.044 85.044-85.044h1020.529c46.861 0 85.044 38.183 85.044 85.044v706.386c0 46.861-38.183 85.044-85.044 85.044h-1020.529z" />
<glyph unicode="&#xe91a;" glyph-name="no-contracts" horiz-adv-x="1010" d="M509.156 950.044c-275.911 0-500.622-224.711-500.622-500.622s224.711-500.622 500.622-500.622c275.911 0 500.622 224.711 500.622 500.622s-224.711 500.622-500.622 500.622zM64 449.422c0 244.622 199.111 443.733 443.733 443.733 112.356 0 214.756-41.244 292.978-110.933l-627.2-627.2c-66.844 79.644-109.511 182.044-109.511 294.4zM509.156 4.267c-112.356 0-214.756 41.244-292.978 110.933l627.2 627.2c68.267-78.222 110.933-180.622 110.933-292.978-1.422-246.044-200.533-445.156-445.156-445.156zM384 507.733c-12.8 0-22.756-9.956-22.756-22.756s9.956-22.756 22.756-22.756h35.556l45.511 45.511h-81.067zM628.622 368.356c12.8 0 22.756 9.956 22.756 22.756s-9.956 22.756-22.756 22.756h-49.778l-45.511-45.511h95.289zM539.022 277.333h88.178c12.8 0 22.756 9.956 22.756 22.756s-9.956 22.756-22.756 22.756h-88.178c-12.8 0-22.756-9.956-22.756-22.756s11.378-22.756 22.756-22.756zM361.244 570.311c0-12.8 9.956-22.756 22.756-22.756h119.467l45.511 45.511h-164.978c-12.8 0-22.756-11.378-22.756-22.756zM718.222 554.667v-365.511h-365.511l-42.667-42.667h450.844v450.844zM298.667 344.178v274.489l91.022 91.022h274.489l42.667 42.667h-334.222l-116.622-115.2v-335.644z" />
<glyph unicode="&#xe91b;" glyph-name="low-cost" horiz-adv-x="1229" d="M1228.8 409.966c-5.851 17.554-26.331 46.811-64.366 46.811-20.48 0-21.943 0-59.977 78.994-4.389 10.24-10.24 21.943-16.091 33.646-36.571 74.606-77.531 100.937-100.937 115.566-4.389 2.926-8.777 5.851-11.703 7.314 2.926 5.851 11.703 16.091 16.091 21.943 14.629 17.554 29.257 36.571 19.017 58.514-2.926 7.314-11.703 20.48-33.646 21.943-36.571 2.926-98.011-30.72-128.731-48.274-2.926-20.48-10.24-39.497-19.017-57.051 11.703-1.463 19.017-2.926 19.017-2.926 7.314-1.463 14.629 0 20.48 4.389 17.554 10.24 36.571 21.943 55.589 30.72-7.314-14.629-11.703-30.72-5.851-46.811 7.314-20.48 23.406-29.257 38.034-39.497 21.943-13.166 51.2-30.72 78.994-90.697 5.851-13.166 11.703-23.406 16.091-33.646 38.034-80.457 54.126-112.64 112.64-112.64 4.389 0 5.851-1.463 7.314-4.389v-125.806c0-1.463 0-2.926 0-2.926-16.091 0-58.514-2.926-83.383-5.851-14.629-1.463-27.794-10.24-36.571-23.406-8.777-14.629-30.72-52.663-57.051-74.606-42.423-38.034-81.92-76.069-89.234-128.731-1.463-11.703-2.926-20.48-2.926-27.794h-93.623v36.571c0 11.703-5.851 21.943-16.091 26.331s-20.48 4.389-30.72-1.463c0 0-29.257-17.554-108.251-17.554-67.291 0-93.623 13.166-98.011 16.091-7.314 8.777-19.017 10.24-30.72 5.851s-17.554-16.091-17.554-29.257v-36.571h-96.549c0 24.869-1.463 58.514-16.091 84.846l-10.24 19.017c-23.406 43.886-67.291 127.269-93.623 198.949-16.091 42.423-55.589 190.171 90.697 298.423 39.497 29.257 71.68 51.2 99.474 65.829-10.24 16.091-19.017 35.109-23.406 54.126-32.183-17.554-67.291-40.96-109.714-73.143-74.606-55.589-109.714-119.954-122.88-178.469-8.777 0-17.554 0-26.331 0 7.314 29.257 4.389 59.977-11.703 84.846-17.554 29.257-58.514 38.034-92.16 20.48-29.257-16.091-51.2-52.663-30.72-100.937 5.851-13.166 13.166-23.406 23.406-30.72-16.091-1.463-30.72 2.926-38.034 4.389-16.091 4.389-32.183-4.389-36.571-19.017-4.389-16.091 4.389-32.183 19.017-36.571 4.389-1.463 24.869-7.314 49.737-7.314 20.48 0 45.349 4.389 65.829 17.554 5.851 4.389 11.703 8.777 16.091 13.166 19.017-2.926 36.571-2.926 51.2-2.926-1.463-57.051 11.703-105.326 20.48-127.269 27.794-76.069 71.68-160.914 96.549-206.263l10.24-19.017c13.166-24.869 10.24-68.754 7.314-83.383-1.463-8.777 1.463-17.554 7.314-23.406s13.166-10.24 21.943-10.24h156.526c16.091 0 29.257 13.166 29.257 29.257v21.943c20.48-4.389 49.737-8.777 87.771-8.777 42.423 0 73.143 4.389 95.086 10.24v-23.406c0-16.091 13.166-29.257 29.257-29.257h149.211c16.091 0 29.257 13.166 29.257 29.257 0 0 0 10.24 5.851 49.737 4.389 32.183 35.109 62.903 70.217 92.16 27.794 24.869 52.663 61.44 65.829 83.383 38.034 2.926 65.829 4.389 74.606 4.389 35.109 0 57.051 32.183 57.051 61.44v131.657c1.463 4.389 1.463 7.314 0 10.24zM141.897 486.034c-10.24 4.389-19.017 8.777-21.943 16.091-8.777 20.48 0 24.869 2.926 26.331s5.851 1.463 8.777 1.463c2.926 0 5.851-1.463 5.851-1.463 7.314-10.24 8.777-27.794 4.389-42.423zM978.651 528.457c0-31.509-16.374-57.051-36.571-57.051s-36.571 25.543-36.571 57.051c0 31.509 16.374 57.051 36.571 57.051s36.571-25.543 36.571-57.051zM789.943 670.354h-8.777c26.331 30.72 40.96 70.217 40.96 109.714 0 93.623-76.069 169.691-169.691 169.691s-169.691-76.069-169.691-169.691c0-40.96 14.629-80.457 40.96-109.714h-8.777c-5.851 0-10.24-4.389-10.24-10.24s4.389-10.24 10.24-10.24h277.943c5.851 0 10.24 4.389 10.24 10.24-2.926 5.851-7.314 10.24-13.166 10.24zM718.263 769.829c0-26.331-20.48-43.886-51.2-48.274v-23.406h-24.869v24.869c-20.48 2.926-40.96 11.703-57.051 23.406l19.017 27.794c13.166-10.24 24.869-16.091 39.497-20.48v38.034c-35.109 8.777-52.663 23.406-52.663 51.2 0 26.331 20.48 43.886 51.2 48.274v14.629h24.869v-14.629c17.554-2.926 32.183-8.777 45.349-17.554l-16.091-27.794c-10.24 7.314-20.48 11.703-30.72 14.629v-36.571c36.571-10.24 52.663-26.331 52.663-54.126zM665.6 787.383v-33.646c11.703 1.463 17.554 7.314 17.554 16.091 0 7.314-4.389 11.703-17.554 17.554zM626.103 847.36c0-7.314 2.926-13.166 16.091-17.554v32.183c-11.703-1.463-16.091-7.314-16.091-14.629z" />
<glyph unicode="&#xe91c;" glyph-name="fully-licensed" horiz-adv-x="891" d="M265.974 429.382c-9.309 0-19.948 5.319-23.938 14.629-6.649 13.299-1.33 29.257 11.969 35.906l283.262 134.317c13.299 6.649 29.257 1.33 35.906-11.969s1.33-29.257-11.969-35.906l-283.262-134.317c-3.99-2.66-7.979-2.66-11.969-2.66zM613.070 457.309l-283.262-134.317c-3.99-1.33-7.979-2.66-11.969-2.66-9.309 0-19.948 5.319-23.938 14.629-6.649 13.299-1.33 29.257 11.969 35.906l283.262 134.317c13.299 6.649 29.257 1.33 35.906-11.969s0-29.257-11.969-35.906zM816.54 369.538c-11.969 25.268-29.257 57.184-49.205 94.421-9.309-21.278-17.288-42.556-25.268-63.834 10.639-19.948 19.948-37.236 26.597-51.865 29.257-75.803 13.299-101.070-11.969-126.338-19.948-19.948-216.769-113.039-402.951-194.161l-79.792 188.842c0 1.33 0 1.33-1.33 2.66-81.122 151.605-203.47 397.631-212.779 452.156-2.66 17.288 0 30.587 3.99 41.226 10.639 14.629 26.597 22.608 43.886 22.608 23.938 0 47.875-14.629 66.494-41.226 38.566-54.525 1.33-118.358-1.33-121.018-6.649-10.639-5.319-22.608 2.66-31.917 5.319-5.319 11.969-9.309 19.948-9.309 3.99 0 7.979 1.33 11.969 2.66l355.075 167.564c21.278-34.577 67.823-110.379 113.039-186.182 9.309 19.948 17.288 39.896 26.597 58.514-42.556 73.143-83.782 139.636-99.74 164.904 10.639 35.906 11.969 86.442-3.99 128.997-22.608 57.184-89.101 83.782-142.296 83.782-47.875 0-299.221-118.358-375.023-152.935-19.948-7.979-47.875-29.257-63.834-63.834 0-1.33-1.33-1.33-1.33-2.66-7.979-19.948-13.299-43.886-7.979-71.813 13.299-79.792 194.161-424.229 218.099-468.114l78.462-187.512c-34.577-11.969-95.751-26.597-127.668 14.629-30.587 39.896-18.618 73.143-11.969 86.442 9.309 18.618 25.268 29.257 35.906 29.257 14.629 0 26.597 11.969 26.597 26.597s-11.969 26.597-26.597 26.597c0 0 0 0-1.33 0-31.917 0-65.164-23.938-82.452-58.514-22.608-45.216-15.958-98.41 17.288-142.296 27.927-37.236 67.823-49.205 105.060-49.205 54.525 0 106.39 23.938 114.369 29.257 75.803 33.247 401.621 176.873 440.187 214.109 49.205 49.205 55.855 102.4 23.938 184.852 0 1.33 0 1.33-1.33 2.66zM456.145 898.826c35.906 0 81.122-17.288 93.091-49.205 13.299-33.247 9.309-70.483 2.66-94.421l-308.53-144.956c5.319 33.247 3.99 74.473-23.938 114.369-17.288 23.938-38.566 42.556-61.174 53.195 136.977 61.174 273.953 119.688 297.891 121.018zM650.306 220.592c-2.66 0-6.649 0-9.309 1.33l-144.956 57.184c-13.299 5.319-19.948 19.948-14.629 33.247s19.948 19.948 33.247 14.629l113.039-45.216c22.608 146.286 150.275 404.281 218.099 476.094 9.309 10.639 25.268 10.639 35.906 1.33s10.639-25.268 1.33-35.906c-66.494-69.153-203.47-357.735-207.46-477.423 0-7.979-3.99-15.958-11.969-19.948-3.99-3.99-7.979-5.319-13.299-5.319z" />
<glyph unicode="&#xe91d;" glyph-name="extensive-library" horiz-adv-x="1010" d="M977.579 949.077h-669.013c-15.019 0-27.307-12.288-27.307-27.307v-111.957h-111.957c-15.019 0-27.307-12.288-27.307-27.307v-111.957h-111.957c-15.019 0-27.307-12.288-27.307-27.307v-669.013c0-15.019 12.288-27.307 27.307-27.307h669.013c15.019 0 27.307 12.288 27.307 27.307v111.957h111.957c15.019 0 27.307 12.288 27.307 27.307v111.957h111.957c15.019 0 27.307 12.288 27.307 27.307v669.013c0 15.019-12.288 27.307-27.307 27.307zM950.272 280.064h-84.651v502.443c0 15.019-12.288 27.307-27.307 27.307h-502.443v84.651h614.4v-614.4zM58.709 1.536v614.4h614.4v-614.4h-614.4zM726.357 643.243c0 15.019-12.288 27.307-27.307 27.307h-502.443v84.651h614.4v-614.4h-84.651v502.443zM253.952 454.827h-2.731v-218.453c-5.461 1.365-12.288 2.731-17.749 2.731-38.229 0-69.632-31.403-69.632-69.632s31.403-69.632 69.632-69.632c36.864 0 66.901 28.672 69.632 64.171v252.587l189.781 61.44v-165.205c-5.461 1.365-12.288 2.731-17.749 2.731-38.229 0-69.632-31.403-69.632-69.632s31.403-69.632 69.632-69.632c38.229 0 69.632 31.403 69.632 69.632v304.469l-290.816-95.573z" />
<glyph unicode="&#xe91e;" glyph-name="easy-to-install" horiz-adv-x="1038" d="M595.651-59.673h-157.206c-15.865 0-28.845 12.98-28.845 28.845v103.842c-28.845 10.096-62.017 24.518-82.208 34.614l-73.555-73.555c-11.538-11.538-28.845-11.538-40.383 0l-111.054 111.054c-5.769 5.769-8.654 12.98-8.654 20.192s2.885 14.423 8.654 20.192l72.113 72.113c-14.423 25.961-25.961 54.806-34.614 83.651h-102.4c-15.865 0-28.845 12.98-28.845 28.845v157.206c0 15.865 12.98 28.845 28.845 28.845h103.842c10.096 28.845 24.518 62.017 34.614 82.208l-73.555 73.555c-5.769 5.769-8.654 12.98-8.654 20.192s2.885 14.423 8.654 20.192l111.054 111.054c11.538 11.538 28.845 11.538 40.383 0l73.555-73.555c27.403 12.98 62.017 25.961 82.208 33.172v103.842c0 15.865 12.98 28.845 28.845 28.845h157.206c15.865 0 28.845-12.98 28.845-28.845v-102.4c28.845-8.654 56.248-20.192 83.651-34.614l72.113 72.113c11.538 11.538 28.845 11.538 40.383 0l111.054-111.054c11.538-11.538 11.538-28.845 0-40.383l-72.113-72.113c14.423-25.961 25.961-54.806 34.614-83.651h102.4c15.865 0 28.845-12.98 28.845-28.845v-157.206c0-15.865-12.98-28.845-28.845-28.845h-102.4c-8.654-28.845-20.192-56.248-34.614-83.651l72.113-72.113c11.538-11.538 11.538-28.845 0-40.383l-111.054-111.054c-11.538-11.538-28.845-11.538-40.383 0l-72.113 72.113c-25.961-14.423-54.806-25.961-83.651-34.614v-102.4c0-14.423-12.98-27.403-28.845-27.403zM467.29-1.983h99.515v96.631c0 12.98 10.096 25.961 23.076 28.845 37.499 8.654 73.555 23.076 106.727 44.71 11.538 7.211 25.961 5.769 36.056-4.327l67.786-67.786 70.67 70.67-67.786 67.786c-10.096 10.096-11.538 24.518-4.327 36.056 21.634 33.172 36.056 69.228 44.71 106.727 2.885 12.98 14.423 23.076 28.845 23.076h96.631v98.073h-96.631c-12.98 0-25.961 10.096-28.845 23.076-8.654 37.499-23.076 73.555-44.71 106.727-7.211 11.538-5.769 25.961 4.327 36.056l67.786 67.786-70.67 70.67-67.786-67.786c-10.096-10.096-24.518-11.538-36.056-4.327-33.172 21.634-69.228 36.056-106.727 44.71-12.98 2.885-23.076 14.423-23.076 28.845v96.631h-99.515v-96.631c0-12.98-8.654-23.076-20.192-27.403-21.634-7.211-83.651-28.845-109.611-44.71-11.538-7.211-25.961-5.769-36.056 4.327l-67.786 67.786-70.67-70.67 67.786-67.786c8.654-8.654 11.538-23.076 5.769-33.172-10.096-20.192-38.941-77.882-46.152-109.611-2.885-12.98-14.423-23.076-28.845-23.076h-96.631v-99.515h96.631c12.98 0 25.961-10.096 28.845-23.076 8.654-37.499 23.076-73.555 44.71-106.727 7.211-11.538 5.769-25.961-4.327-36.056l-67.786-67.786 70.67-70.67 67.786 67.786c8.654 8.654 23.076 11.538 33.172 5.769 20.192-10.096 77.882-38.941 109.611-46.152 12.98-2.885 23.076-14.423 23.076-28.845v-96.631zM517.769 189.837c-142.783 0-258.163 115.38-258.163 258.163s115.38 258.163 258.163 258.163c142.783 0 258.163-115.38 258.163-258.163 0-141.341-116.823-258.163-258.163-258.163zM517.769 649.915c-111.054 0-200.473-89.42-200.473-200.473s89.42-200.473 200.473-200.473c111.054 0 200.473 89.42 200.473 200.473 0 109.611-90.862 200.473-200.473 200.473zM575.459 436.462v158.648h-116.823v-158.648h-95.189l154.321-152.879 152.879 152.879z" />
<glyph unicode="&#xe91f;" glyph-name="print-picture" d="M917.333 704h-810.667c-58.795 0-106.667-47.872-106.667-106.667v-256c0-58.795 47.872-106.667 106.667-106.667h106.667v-277.333c0-11.776 9.557-21.333 21.333-21.333h554.667c11.776 0 21.333 9.557 21.333 21.333v277.333h106.667c58.795 0 106.667 47.872 106.667 106.667v256c0 58.795-47.872 106.667-106.667 106.667zM768-21.333h-512v384h512v-384zM981.333 341.333c0-35.285-28.715-64-64-64h-106.667v106.667c0 11.776-9.557 21.333-21.333 21.333h-554.667c-11.776 0-21.333-9.557-21.333-21.333v-106.667h-106.667c-35.285 0-64 28.715-64 64v256c0 35.285 28.715 64 64 64h810.667c35.285 0 64-28.715 64-64v-256zM234.667 746.667c11.776 0 21.333 9.557 21.333 21.333v149.333h384v-106.667c0-11.776 9.557-21.333 21.333-21.333h106.667v-21.333c0-11.776 9.557-21.333 21.333-21.333s21.333 9.557 21.333 21.333v42.667c0 2.859-0.597 5.632-1.664 8.192-1.067 2.603-2.645 4.949-4.608 6.912l-127.957 127.957c-1.963 1.963-4.309 3.541-6.912 4.608-2.56 1.067-5.333 1.664-8.192 1.664h-426.667c-11.776 0-21.333-9.557-21.333-21.333v-170.667c0-11.776 9.557-21.333 21.333-21.333zM682.667 887.168l55.168-55.168h-55.168v55.168zM149.333 618.667c-35.285 0-64-28.715-64-64s28.715-64 64-64 64 28.715 64 64-28.715 64-64 64zM149.333 533.333c-11.776 0-21.333 9.557-21.333 21.333s9.557 21.333 21.333 21.333 21.333-9.557 21.333-21.333-9.557-21.333-21.333-21.333zM630.571 272.64c-2.987 7.253-9.771 12.331-17.621 13.099-7.723 0.555-15.445-2.816-19.84-9.344l-85.717-128-85.845 70.528c-4.949 4.096-11.563 5.675-17.835 4.437-6.315-1.28-11.691-5.376-14.635-11.093l-82.688-159.787c-3.456-6.613-3.157-14.549 0.725-20.907s10.795-10.24 18.219-10.24h376.875c7.125 0 13.781 3.541 17.749 9.472s4.693 13.397 2.005 20.011l-91.392 221.824zM360.405 64l54.443 105.216 83.627-68.693c4.651-3.84 10.88-5.504 16.64-4.608 5.973 0.896 11.264 4.224 14.635 9.216l76.587 114.347 64-155.477h-309.931zM370.517 243.883c23.509 0 42.667 19.157 42.667 42.667s-19.157 42.667-42.667 42.667-42.667-19.157-42.667-42.667c0-23.509 19.115-42.667 42.667-42.667z" />
<glyph unicode="&#xe920;" glyph-name="pencil-3" d="M978.773 843.435l-71.339 71.296c-41.6 41.6-109.269 41.6-150.827 0-175.104-175.061-109.056-109.056-643.669-643.627-2.304-2.304-4.523-6.272-5.333-8.832l-85.333-277.333c-4.992-16.299 10.24-31.659 26.667-26.667 8.235 2.517 269.909 82.944 278.016 85.76 2.944 1.024 5.76 2.56 8.107 4.907 636.117 636.075 472.405 472.363 643.712 643.627 20.096 20.096 31.147 46.848 31.147 75.435 0 28.501-11.093 55.296-31.147 75.435zM832 606.165l-161.835 161.835 33.835 33.835 161.835-161.835-33.835-33.835zM179.2 43.008l-72.192 72.149 30.976 100.693 17.621-17.621c3.968-3.968 9.387-6.229 15.061-6.229h85.333v-85.333c0-5.675 2.261-11.093 6.272-15.104l17.621-17.621-100.693-30.933zM268.501 234.667h-89.003l-21.333 21.333 481.835 481.835 65.835-65.835-437.333-437.333zM92.8 69.035l40.235-40.235-58.112-17.877 17.877 58.112zM320 94.165l-21.333 21.333v89.003l437.333 437.333 65.835-65.835-481.835-481.835zM948.565 722.731l-52.565-52.565-161.835 161.835 52.565 52.565c24.96 24.917 65.536 24.917 90.496 0l71.339-71.296c12.032-12.032 18.688-28.117 18.688-45.269 0-17.195-6.613-33.237-18.688-45.269z" />
<glyph unicode="&#xe921;" glyph-name="pen-paint-brush" d="M618.24 396.032l338.688 338.773c4.224-9.301 6.699-19.755 6.699-30.805 0-19.157-6.827-36.992-18.731-48.896l-213.333-213.333c-8.32-8.32-8.32-21.845 0-30.165s21.845-8.32 30.165 0l213.333 213.333c19.84 19.84 31.232 48.683 31.232 79.061 0 22.699-6.357 44.501-17.835 62.336l29.269 29.269c8.32 8.32 8.32 21.845 0 30.165l-128 128c-8.32 8.32-21.845 8.32-30.165 0l-417.835-417.749-43.947 34.859c9.984 26.795 13.909 55.765 9.643 85.12-6.656 45.781-30.464 86.016-67.029 113.28-20.864 15.531-47.317 23.979-75.307 32.853-64.683 20.565-120.533 38.315-115.755 135.509 0.427 8.747-4.523 16.853-12.501 20.48-7.979 3.541-17.323 1.963-23.68-4.139-84.992-82.176-114.091-193.152-79.787-304.512 30.336-98.475 107.264-176.853 187.093-190.635 30.592-5.291 58.923-1.408 88.789 13.269l35.627-32.981-253.312-253.312c-4.011-4.011-6.229-9.429-6.229-15.104s2.261-11.093 6.229-15.104l16.939-16.939-59.563-59.563c-8.32-8.32-8.32-21.845 0-30.165l16.939-16.939-59.605-59.605c-8.32-8.32-8.32-21.845 0-30.165s21.845-8.32 30.165 0l59.605 59.563 16.896-16.896c8.32-8.32 21.845-8.32 30.165 0l59.648 59.605 16.896-16.896c8.32-8.32 21.845-8.32 30.165 0l259.328 259.285 372.437-345.216c3.84-3.627 9.045-5.675 14.421-5.675 0 0 81.707 1.792 100.864 20.864 19.029 18.859 27.136 50.901 27.136 107.136 0 6.528-2.987 12.672-8.107 16.725l-397.653 315.307zM874.667 908.501l97.835-97.835-204.501-204.501-97.792 97.877 204.459 204.459zM227.712 500.907c-64.64 11.179-127.829 77.44-153.6 161.152-24.448 79.445-11.221 158.72 36.053 223.787 17.024-84.651 87.936-107.179 141.995-124.373 24.491-7.808 47.616-15.104 62.763-26.411 27.392-20.437 45.227-50.688 50.261-85.205 5.291-36.352-5.035-70.699-23.979-96-26.027-35.029-67.499-60.8-113.493-52.949zM345.984 496.213c0.128 0.085 0.213 0.256 0.341 0.384 12.885 11.435 24.747 25.216 31.744 35.456l33.28-26.411-36.309-36.352-29.056 26.923zM128 30.208l-33.835 33.877 44.501 44.459 33.877-33.835-44.544-44.501zM234.709 72.875l-97.877 97.835 503.125 503.168 97.92-97.92-503.168-503.083zM966.827-12.843c-11.008-10.88-46.763-8.576-62.421-8.533l-365.141 338.475 48.597 48.597 393.344-311.936c-0.725-35.883-5.419-57.771-14.379-66.603z" />
<glyph unicode="&#xe922;" glyph-name="notebook-pencil" d="M1022.933 689.408l-85.333 256c-2.901 8.704-11.051 14.592-20.224 14.592s-17.323-5.888-20.224-14.592l-85.333-255.915c-0.64-1.92-0.896-3.968-0.981-5.973 0-0.299-0.171-0.555-0.171-0.853 0-0.085 0.043-0.128 0.043-0.213v-639.787c0-58.709 47.829-106.581 106.667-106.667 58.837 0.085 106.667 47.957 106.667 106.709v639.957c0 2.304-0.384 4.565-1.109 6.741zM853.376 661.333h128v-512h-128v512zM917.376 871.211l55.723-167.211h-111.488l55.765 167.211zM917.333-21.333c-35.285 0.043-64 28.757-64 64v64h128v-63.957c0.043-35.243-28.715-64-64-64.043zM661.333 874.667h-597.333c-35.285 0-64-28.715-64-64v-725.333c0-35.285 28.715-64 64-64h597.333c11.776 0 21.333 9.557 21.333 21.333v810.667c0 11.776-9.557 21.333-21.333 21.333zM42.667 85.333v725.333c0 11.776 9.557 21.333 21.333 21.333h64v-768h-64c-11.563 0-21.333 9.771-21.333 21.333zM640 64h-469.333v768h469.333v-768zM277.333 490.667h256c11.776 0 21.333 9.557 21.333 21.333v128c0 11.776-9.557 21.333-21.333 21.333h-256c-11.776 0-21.333-9.557-21.333-21.333v-128c0-11.776 9.557-21.333 21.333-21.333zM298.667 618.667h213.333v-85.333h-213.333v85.333z" />
<glyph unicode="&#xe923;" glyph-name="checklist-pen" d="M283.605 761.728l-112.939-112.896-48.939 48.896c-8.32 8.32-21.845 8.32-30.165 0s-8.32-21.845 0-30.165l64-64c4.181-4.139 9.643-6.229 15.104-6.229s10.923 2.091 15.061 6.229l128 128c8.32 8.32 8.32 21.845 0 30.165s-21.803 8.363-30.123 0zM283.605 527.104l-112.939-112.939-48.939 48.939c-8.32 8.32-21.845 8.32-30.165 0s-8.32-21.845 0-30.165l64-64c4.181-4.181 9.643-6.272 15.104-6.272s10.923 2.091 15.061 6.229l128 128c8.32 8.32 8.32 21.845 0 30.165s-21.803 8.363-30.123 0.043zM618.667 874.667h-597.333c-11.776 0-21.333-9.557-21.333-21.333v-810.667c0-11.776 9.557-21.333 21.333-21.333h384c2.859 0 5.632 0.597 8.192 1.664 2.603 1.067 4.949 2.645 6.912 4.608l213.291 213.291c1.963 1.963 3.541 4.309 4.608 6.912 1.067 2.56 1.664 5.333 1.664 8.192v597.333c0 11.776-9.557 21.333-21.333 21.333zM42.667 832h554.667v-554.667h-192c-11.776 0-21.333-9.557-21.333-21.333v-192h-341.333v768zM567.168 234.667l-140.501-140.501v140.501h140.501zM1023.915 810.667c0 51.499-36.693 94.549-85.291 104.448v23.552c0 11.776-9.557 21.333-21.333 21.333h-170.624c-11.776 0-21.333-9.557-21.333-21.333l-0.085-341.333 0.043-448c0-11.776 9.557-21.333 21.333-21.333h21.376v-64c0-11.776 9.557-21.333 21.333-21.333h21.333v-85.333c0-11.776 9.557-21.333 21.333-21.333s21.333 9.557 21.333 21.333v85.333h21.333c11.776 0 21.333 9.557 21.333 21.333v64h21.333c5.675 0 11.093 2.261 15.104 6.229 3.968 4.011 6.229 9.429 6.229 15.104l-0.043 721.365c24.747-8.832 42.624-32.256 42.624-60.032l0.085-341.333c0-11.776 9.557-21.333 21.333-21.333s21.333 9.557 21.333 21.333l-0.085 341.333zM768 917.333h127.957v-298.667h-128.043l0.085 298.667zM853.333 85.333h-42.667v42.667h42.667v-42.667zM767.957 170.667l-0.043 405.333h128.043l0.043-405.333h-128.043zM362.667 618.667h149.333c11.776 0 21.333 9.557 21.333 21.333s-9.557 21.333-21.333 21.333h-149.333c-11.776 0-21.333-9.557-21.333-21.333s9.557-21.333 21.333-21.333zM512 405.333c11.776 0 21.333 9.557 21.333 21.333s-9.557 21.333-21.333 21.333h-149.333c-11.776 0-21.333-9.557-21.333-21.333s9.557-21.333 21.333-21.333h149.333z" />
<glyph unicode="&#xe924;" glyph-name="wrench-double" d="M770.816 310.656l-137.728 137.429 137.771 138.069c69.035-23.339 144.939-5.931 196.949 46.123 55.851 55.851 71.552 135.339 41.003 207.531-2.773 6.613-8.704 11.349-15.787 12.672-7.083 1.237-14.293-1.024-19.243-6.187l-75.349-78.293h-66.432v66.432l78.293 75.392c5.163 4.992 7.509 12.203 6.187 19.243-1.323 7.083-6.059 12.971-12.672 15.787-71.765 30.336-153.813 14.293-209.067-40.96-51.797-51.755-68.907-127.701-45.44-197.035l-137.429-137.728-138.027 137.728c23.296 68.992 5.888 144.896-46.165 196.907-55.808 55.851-135.296 71.595-207.488 41.045-6.613-2.816-11.349-8.704-12.672-15.787-1.323-7.040 1.024-14.251 6.187-19.243l78.293-75.349v-66.432h-66.432l-75.349 78.293c-4.992 5.163-12.288 7.467-19.243 6.187-7.083-1.323-13.013-6.059-15.787-12.672-30.336-71.765-14.251-153.813 40.96-209.067 51.755-51.797 127.787-68.907 197.035-45.44l137.728-137.429-137.771-138.027c-68.949 23.296-144.896 5.931-196.949-46.165-55.851-55.808-71.552-135.296-41.003-207.488 2.773-6.613 8.704-11.349 15.787-12.672 6.997-1.28 14.251 0.981 19.243 6.187l75.349 78.293h66.432v-66.432l-78.293-75.349c-5.163-4.992-7.467-12.245-6.187-19.243 1.323-7.083 6.059-12.971 12.672-15.744 24.064-10.24 49.323-15.232 74.368-15.232 49.493 0 98.005 19.413 134.699 56.149 51.797 51.755 68.907 127.701 45.44 196.992l137.472 137.771 138.027-137.771c-23.296-69.035-5.931-144.939 46.165-196.907 36.949-36.992 84.309-56.363 133.077-56.363 24.875 0 50.048 5.035 74.453 15.36 6.613 2.773 11.349 8.704 12.672 15.744s-1.024 14.251-6.187 19.243l-78.379 75.349v66.432h66.432l75.392-78.293c4.949-5.163 12.16-7.424 19.243-6.187 7.083 1.323 12.971 6.059 15.787 12.672 30.336 71.723 14.251 153.813-40.96 209.067-51.797 51.797-127.872 68.907-197.077 45.397zM273.579 625.237c-6.144 6.101-15.403 7.979-23.381 4.565-56.661-23.979-121.045-11.776-163.883 31.104-34.645 34.645-49.451 82.859-41.472 129.408l56.277-58.453c4.011-4.181 9.6-6.528 15.36-6.528h96.853c11.776 0 21.333 9.557 21.333 21.333v96.853c0 5.803-2.347 11.349-6.528 15.36l-58.539 56.363c46.251 8.064 93.013-6.656 127.915-41.643 43.221-43.136 55.723-107.435 31.872-163.797-3.413-7.979-1.621-17.28 4.565-23.424l147.797-147.499-60.672-60.8-147.499 147.157zM330.197 186.155c23.979-56.704 11.733-121.003-31.104-163.84-34.645-34.645-82.816-49.579-129.451-41.472l58.496 56.277c4.181 4.011 6.528 9.6 6.528 15.36v96.853c0 11.776-9.557 21.333-21.333 21.333h-96.853c-5.803 0-11.349-2.347-15.36-6.528l-56.363-58.581c-8.021 46.165 6.656 93.013 41.643 127.957 43.136 43.221 107.477 55.723 163.797 31.872 8.021-3.413 17.28-1.621 23.424 4.565l415.659 416.512c6.144 6.144 7.936 15.36 4.523 23.339-23.979 56.704-11.733 121.045 31.104 163.883 34.645 34.645 82.901 49.408 129.408 41.515l-58.453-56.277c-4.181-4.053-6.528-9.643-6.528-15.403v-96.853c0-11.776 9.557-21.333 21.333-21.333h96.853c5.803 0 11.349 2.347 15.36 6.528l56.363 58.539c8.021-46.165-6.656-93.013-41.6-127.957-43.136-43.179-107.349-55.765-163.797-31.829-7.979 3.371-17.28 1.579-23.424-4.608l-415.659-416.512c-6.144-6.059-7.936-15.317-4.565-23.339zM979.157 105.685l-56.277 58.496c-4.011 4.181-9.6 6.528-15.36 6.528h-96.853c-11.776 0-21.333-9.557-21.333-21.333v-96.853c0-5.803 2.347-11.349 6.528-15.36l58.539-56.363c-46.165-8.064-93.013 6.656-127.957 41.643-43.179 43.136-55.68 107.392-31.829 163.755 3.413 8.021 1.579 17.28-4.565 23.424l-147.797 147.541 60.672 60.8 147.499-147.157c6.144-6.144 15.36-7.979 23.339-4.523 56.747 23.893 121.003 11.733 163.883-31.147 34.688-34.731 49.493-82.901 41.515-129.451z" />
<glyph unicode="&#xe925;" glyph-name="swtich-up" d="M1002.667 960h-981.333c-11.776 0-21.333-9.557-21.333-21.333v-981.333c0-11.776 9.557-21.333 21.333-21.333h981.333c11.776 0 21.333 9.557 21.333 21.333v981.333c0 11.776-9.557 21.333-21.333 21.333zM981.333-21.333h-938.667v938.667h938.667v-938.667zM362.667 192h298.667c11.776 0 21.333 9.557 21.333 21.333v469.333c0 11.776-9.557 21.333-21.333 21.333h-298.667c-11.776 0-21.333-9.557-21.333-21.333v-469.333c0-11.776 9.557-21.333 21.333-21.333zM384 234.667v341.333h256v-341.333h-256zM640 661.333v-42.667h-256v42.667h256zM149.333 746.667c35.285 0 64 28.715 64 64s-28.715 64-64 64-64-28.715-64-64 28.715-64 64-64zM149.333 832c11.776 0 21.333-9.557 21.333-21.333s-9.557-21.333-21.333-21.333-21.333 9.557-21.333 21.333 9.557 21.333 21.333 21.333zM874.667 746.667c35.285 0 64 28.715 64 64s-28.715 64-64 64-64-28.715-64-64 28.715-64 64-64zM874.667 832c11.776 0 21.333-9.557 21.333-21.333s-9.557-21.333-21.333-21.333-21.333 9.557-21.333 21.333 9.557 21.333 21.333 21.333zM149.333 21.333c35.285 0 64 28.715 64 64s-28.715 64-64 64-64-28.715-64-64 28.715-64 64-64zM149.333 106.667c11.776 0 21.333-9.557 21.333-21.333s-9.557-21.333-21.333-21.333-21.333 9.557-21.333 21.333 9.557 21.333 21.333 21.333zM874.667 21.333c35.285 0 64 28.715 64 64s-28.715 64-64 64-64-28.715-64-64 28.715-64 64-64zM874.667 106.667c11.776 0 21.333-9.557 21.333-21.333s-9.557-21.333-21.333-21.333-21.333 9.557-21.333 21.333 9.557 21.333 21.333 21.333z" />
<glyph unicode="&#xe926;" glyph-name="swtich-down" d="M1002.667 960h-981.333c-11.776 0-21.333-9.557-21.333-21.333v-981.333c0-11.776 9.557-21.333 21.333-21.333h981.333c11.776 0 21.333 9.557 21.333 21.333v981.333c0 11.776-9.557 21.333-21.333 21.333zM981.333-21.333h-938.667v938.667h938.667v-938.667zM362.667 192h298.667c11.776 0 21.333 9.557 21.333 21.333v469.333c0 11.776-9.557 21.333-21.333 21.333h-298.667c-11.776 0-21.333-9.557-21.333-21.333v-469.333c0-11.776 9.557-21.333 21.333-21.333zM384 234.667v42.667h256v-42.667h-256zM640 661.333v-341.333h-256v341.333h256zM149.333 746.667c35.285 0 64 28.715 64 64s-28.715 64-64 64-64-28.715-64-64 28.715-64 64-64zM149.333 832c11.776 0 21.333-9.557 21.333-21.333s-9.557-21.333-21.333-21.333-21.333 9.557-21.333 21.333 9.557 21.333 21.333 21.333zM874.667 746.667c35.285 0 64 28.715 64 64s-28.715 64-64 64-64-28.715-64-64 28.715-64 64-64zM874.667 832c11.776 0 21.333-9.557 21.333-21.333s-9.557-21.333-21.333-21.333-21.333 9.557-21.333 21.333 9.557 21.333 21.333 21.333zM149.333 21.333c35.285 0 64 28.715 64 64s-28.715 64-64 64-64-28.715-64-64 28.715-64 64-64zM149.333 106.667c11.776 0 21.333-9.557 21.333-21.333s-9.557-21.333-21.333-21.333-21.333 9.557-21.333 21.333 9.557 21.333 21.333 21.333zM874.667 21.333c35.285 0 64 28.715 64 64s-28.715 64-64 64-64-28.715-64-64 28.715-64 64-64zM874.667 106.667c11.776 0 21.333-9.557 21.333-21.333s-9.557-21.333-21.333-21.333-21.333 9.557-21.333 21.333 9.557 21.333 21.333 21.333z" />
<glyph unicode="&#xe927;" glyph-name="settings-2" d="M960 960h-938.667c-11.776 0-21.333-9.557-21.333-21.333v-981.333c0-11.776 9.557-21.333 21.333-21.333h938.667c11.776 0 21.333 9.557 21.333 21.333v981.333c0 11.776-9.557 21.333-21.333 21.333zM938.667-21.333h-896v938.667h896v-938.667zM662.656 405.333h64v-64c0-11.776 9.557-21.333 21.333-21.333s21.333 9.557 21.333 21.333v64h64c11.776 0 21.333 9.557 21.333 21.333v85.333c0 11.776-9.557 21.333-21.333 21.333h-64v277.333c0 11.776-9.557 21.333-21.333 21.333s-21.333-9.557-21.333-21.333v-277.333h-64c-11.776 0-21.333-9.557-21.333-21.333v-85.333c0-11.776 9.557-21.333 21.333-21.333zM683.989 490.667h128v-42.667h-128v42.667zM405.333 618.667h64v-277.333c0-11.776 9.557-21.333 21.333-21.333s21.333 9.557 21.333 21.333v277.333h64c11.776 0 21.333 9.557 21.333 21.333v85.333c0 11.776-9.557 21.333-21.333 21.333h-64v64c0 11.776-9.557 21.333-21.333 21.333s-21.333-9.557-21.333-21.333v-64h-64c-11.776 0-21.333-9.557-21.333-21.333v-85.333c0-11.776 9.557-21.333 21.333-21.333zM426.667 704h128v-42.667h-128v42.667zM149.333 490.667h64v-149.333c0-11.776 9.557-21.333 21.333-21.333s21.333 9.557 21.333 21.333v149.333h64c11.776 0 21.333 9.557 21.333 21.333v85.333c0 11.776-9.557 21.333-21.333 21.333h-64v192c0 11.776-9.557 21.333-21.333 21.333s-21.333-9.557-21.333-21.333v-192h-64c-11.776 0-21.333-9.557-21.333-21.333v-85.333c0-11.776 9.557-21.333 21.333-21.333zM170.667 576h128v-42.667h-128v42.667zM748.459 234.667c-47.061 0-85.333-38.272-85.333-85.333s38.272-85.333 85.333-85.333 85.333 38.272 85.333 85.333c0 47.061-38.272 85.333-85.333 85.333zM748.459 106.667c-23.509 0-42.667 19.157-42.667 42.667s19.157 42.667 42.667 42.667 42.667-19.157 42.667-42.667-19.157-42.667-42.667-42.667zM490.667 234.667c-47.061 0-85.333-38.272-85.333-85.333s38.272-85.333 85.333-85.333 85.333 38.272 85.333 85.333c0 47.061-38.272 85.333-85.333 85.333zM490.667 106.667c-23.509 0-42.667 19.157-42.667 42.667s19.157 42.667 42.667 42.667 42.667-19.157 42.667-42.667-19.157-42.667-42.667-42.667zM234.667 234.667c-47.061 0-85.333-38.272-85.333-85.333s38.272-85.333 85.333-85.333 85.333 38.272 85.333 85.333c0 47.061-38.272 85.333-85.333 85.333zM234.667 106.667c-23.509 0-42.667 19.157-42.667 42.667s19.157 42.667 42.667 42.667 42.667-19.157 42.667-42.667-19.157-42.667-42.667-42.667z" />
<glyph unicode="&#xe928;" glyph-name="computer-setting-3" d="M938.667 832h-853.333c-47.061 0-85.333-39.979-85.333-89.088v-632.491c0-49.109 38.272-89.088 85.333-89.088h405.333v-42.667h-277.333c-11.776 0-21.333-9.557-21.333-21.333s9.557-21.333 21.333-21.333h597.333c11.776 0 21.333 9.557 21.333 21.333s-9.557 21.333-21.333 21.333h-277.333v42.667h405.333c47.061 0 85.333 39.979 85.333 89.088v632.491c0 49.109-38.272 89.088-85.333 89.088zM85.333 789.333h853.333c23.509 0 42.667-20.821 42.667-46.421v-508.245h-938.667v508.245c0 25.6 19.157 46.421 42.667 46.421zM938.667 64h-853.333c-23.509 0-42.667 20.821-42.667 46.421v81.579h938.667v-81.579c0-25.6-19.157-46.421-42.667-46.421zM512 170.667c-23.509 0-42.667-19.157-42.667-42.667s19.157-42.667 42.667-42.667 42.667 19.157 42.667 42.667-19.157 42.667-42.667 42.667zM298.667 344.363v-24.363c0-11.776 9.557-21.333 21.333-21.333s21.333 9.557 21.333 21.333v24.363c36.693 9.557 64 42.667 64 82.304s-27.307 72.789-64 82.304v195.029c0 11.776-9.557 21.333-21.333 21.333-11.733 0-21.333-9.515-21.333-21.333v-195.029c-36.693-9.557-64-42.667-64-82.304s27.307-72.789 64-82.304zM320 469.333c23.509 0 42.667-19.157 42.667-42.667s-19.157-42.667-42.667-42.667-42.667 19.157-42.667 42.667 19.157 42.667 42.667 42.667zM490.667 515.029v-195.029c0-11.776 9.557-21.333 21.333-21.333s21.333 9.557 21.333 21.333v195.029c36.693 9.557 64 42.667 64 82.304s-27.307 72.789-64 82.304v24.363c0 11.776-9.557 21.333-21.333 21.333s-21.333-9.557-21.333-21.333v-24.363c-36.693-9.557-64-42.667-64-82.304s27.307-72.789 64-82.304zM512 640c23.509 0 42.667-19.157 42.667-42.667s-19.157-42.667-42.667-42.667-42.667 19.157-42.667 42.667 19.157 42.667 42.667 42.667zM682.667 344.363v-24.363c0-11.776 9.557-21.333 21.333-21.333s21.333 9.557 21.333 21.333v24.363c36.693 9.557 64 42.667 64 82.304s-27.307 72.789-64 82.304v195.029c0 11.776-9.557 21.333-21.333 21.333-11.733 0-21.333-9.515-21.333-21.333v-195.029c-36.693-9.557-64-42.667-64-82.304s27.307-72.789 64-82.304zM704 469.333c23.509 0 42.667-19.157 42.667-42.667s-19.157-42.667-42.667-42.667-42.667 19.157-42.667 42.667 19.157 42.667 42.667 42.667z" />
<glyph unicode="&#xe929;" glyph-name="brightness-increase" d="M512 640c-105.856 0-192-86.144-192-192 0-105.899 86.144-192 192-192s192 86.101 192 192c0 105.856-86.144 192-192 192zM512 298.667c-82.347 0-149.333 66.987-149.333 149.333s66.987 149.333 149.333 149.333 149.333-66.987 149.333-149.333-66.987-149.333-149.333-149.333zM533.333 746.667c11.776 0 21.333 9.557 21.333 21.333v170.667c0 11.776-9.557 21.333-21.333 21.333s-21.333-9.557-21.333-21.333v-170.667c0-11.776 9.557-21.333 21.333-21.333zM533.333 149.333c-11.776 0-21.333-9.557-21.333-21.333v-170.667c0-11.776 9.557-21.333 21.333-21.333s21.333 9.557 21.333 21.333v170.667c0 11.776-9.557 21.333-21.333 21.333zM180.139 810.027c-8.32 8.32-21.845 8.32-30.165 0s-8.32-21.845 0-30.165l120.619-120.704c8.32-8.32 21.845-8.32 30.165 0s8.32 21.803 0 30.165l-120.619 120.704zM753.323 236.843c-8.32 8.32-21.845 8.32-30.165 0s-8.32-21.845 0-30.165l120.704-120.747c8.32-8.32 21.845-8.32 30.165 0s8.32 21.845 0 30.165l-120.704 120.747zM213.333 426.667c0 11.776-9.557 21.333-21.333 21.333h-170.667c-11.776 0-21.333-9.557-21.333-21.333s9.557-21.333 21.333-21.333h170.667c11.776 0 21.333 9.557 21.333 21.333zM1002.667 448h-170.667c-11.776 0-21.333-9.557-21.333-21.333s9.557-21.333 21.333-21.333h170.667c11.776 0 21.333 9.557 21.333 21.333s-9.557 21.333-21.333 21.333zM270.592 236.843l-120.619-120.747c-8.32-8.32-8.32-21.845 0-30.165s21.845-8.32 30.165 0l120.619 120.747c8.32 8.32 8.32 21.888 0 30.165-8.32 8.32-21.845 8.32-30.165 0zM753.323 659.157l120.704 120.704c8.32 8.32 8.32 21.845 0 30.165s-21.845 8.32-30.165 0l-120.704-120.704c-8.32-8.363-8.32-21.845 0-30.165 8.363-8.32 21.845-8.32 30.165 0z" />
<glyph unicode="&#xe92a;" glyph-name="key-2" d="M256 320c-70.571 0-128-57.429-128-128s57.429-128 128-128 128 57.429 128 128-57.429 128-128 128zM256 106.667c-47.061 0-85.333 38.272-85.333 85.333s38.272 85.333 85.333 85.333 85.333-38.272 85.333-85.333-38.272-85.333-85.333-85.333zM996.437 633.771l-91.605 91.563 48.896 48.896c15.445 15.403 23.936 35.883 23.979 57.685 0 21.845-8.491 42.368-23.979 57.856-31.829 31.744-83.584 31.787-115.499 0l-468.565-468.608c-35.371 17.621-74.325 26.837-113.664 26.837-141.184 0-256-114.816-256-256s114.816-256 256-256 256 114.816 256 256c0 39.339-9.216 78.293-26.837 113.664l197.504 197.461 70.229-70.229c8.32-8.32 21.845-8.32 30.165 0l64 64c8.32 8.32 8.32 21.845 0 30.165l-70.229 70.272 33.835 33.835 91.563-91.605c8.32-8.32 21.845-8.32 30.165 0l64 64c8.363 8.32 8.363 21.845 0.043 30.208zM917.333 584.832l-91.563 91.563c-8.32 8.32-21.845 8.32-30.165 0l-64-64c-8.32-8.32-8.32-21.845 0-30.165l70.229-70.229-33.835-33.835-70.229 70.187c-8.32 8.363-21.845 8.363-30.165 0l-223.787-223.744c-6.827-6.869-8.235-17.451-3.371-25.771 18.901-32.597 28.885-69.504 28.885-106.837 0-117.632-95.701-213.333-213.333-213.333s-213.333 95.701-213.333 213.333 95.701 213.333 213.333 213.333c37.333 0 74.283-9.984 106.837-28.928 8.32-4.821 18.944-3.499 25.771 3.371l479.787 479.787c15.232 15.147 39.979 15.189 55.168 0 7.381-7.381 11.435-17.195 11.435-27.605s-4.053-20.181-11.435-27.563l-64-64c-8.32-8.32-8.32-21.845 0-30.165l91.605-91.563-33.835-33.835z" />
<glyph unicode="&#xe92b;" glyph-name="door" d="M832 874.667h-320v64c0 6.485-2.944 12.587-7.979 16.64-5.077 4.053-11.648 5.504-17.963 4.224l-384-85.333c-9.771-2.176-16.725-10.88-16.725-20.864v-810.667c0-9.984 6.955-18.688 16.725-20.821l384-85.333c6.272-1.365 12.843 0.085 17.963 4.181 5.035 4.053 7.979 10.155 7.979 16.64v64h320c11.776 0 21.333 9.557 21.333 21.333v810.667c0 11.776-9.557 21.333-21.333 21.333zM469.333-16.043l-341.333 75.819v776.448l341.333 75.819v-928.085zM810.667 64h-298.667v768h298.667v-768zM341.333 512c-47.061 0-85.333-38.272-85.333-85.333s38.272-85.333 85.333-85.333 85.333 38.272 85.333 85.333-38.272 85.333-85.333 85.333zM341.333 384c-23.509 0-42.667 19.157-42.667 42.667s19.157 42.667 42.667 42.667 42.667-19.157 42.667-42.667-19.157-42.667-42.667-42.667z" />
<glyph unicode="&#xe92c;" glyph-name="computer-check" d="M938.667 832h-853.333c-47.061 0-85.333-39.979-85.333-89.088v-632.491c0-49.109 38.272-89.088 85.333-89.088h405.333v-42.667h-277.333c-11.776 0-21.333-9.557-21.333-21.333s9.557-21.333 21.333-21.333h597.333c11.776 0 21.333 9.557 21.333 21.333s-9.557 21.333-21.333 21.333h-277.333v42.667h405.333c47.061 0 85.333 39.979 85.333 89.088v632.491c0 49.109-38.272 89.088-85.333 89.088zM85.333 789.333h853.333c23.509 0 42.667-20.821 42.667-46.421v-508.245h-938.667v508.245c0 25.6 19.157 46.421 42.667 46.421zM938.667 64h-853.333c-23.509 0-42.667 20.821-42.667 46.421v81.579h938.667v-81.579c0-25.6-19.157-46.421-42.667-46.421zM512 170.667c-23.509 0-42.667-19.157-42.667-42.667s19.157-42.667 42.667-42.667 42.667 19.157 42.667 42.667-19.157 42.667-42.667 42.667zM420.437 527.104c-8.32 8.32-21.845 8.32-30.165 0s-8.32-21.845 0-30.165l85.333-85.333c4.139-4.181 9.6-6.272 15.061-6.272s10.923 2.091 15.104 6.229l170.667 170.667c8.32 8.32 8.32 21.845 0 30.165s-21.845 8.32-30.165 0l-155.605-155.563-70.229 70.272zM512 298.667c117.632 0 213.333 95.701 213.333 213.333 0 11.776-9.557 21.333-21.333 21.333s-21.333-9.557-21.333-21.333c0-94.123-76.544-170.667-170.667-170.667s-170.667 76.544-170.667 170.667 76.544 170.667 170.667 170.667c27.819 0 54.357-6.485 78.848-19.285 10.496-5.419 23.339-1.408 28.8 9.045 5.419 10.453 1.408 23.339-9.045 28.8-30.251 15.787-64.341 24.107-98.603 24.107-117.632 0-213.333-95.701-213.333-213.333s95.701-213.333 213.333-213.333z" />
<glyph unicode="&#xe92d;" glyph-name="watch-2" d="M512 435.499v97.835c0 11.776-9.557 21.333-21.333 21.333s-21.333-9.557-21.333-21.333v-106.667c0-5.675 2.261-11.093 6.229-15.104l128-128c8.32-8.32 21.845-8.32 30.165 0s8.32 21.845 0 30.165l-121.728 121.771zM1017.771 783.104l-170.667 170.667c-8.32 8.32-21.845 8.32-30.165 0l-224.085-224.085c-32.128 10.837-66.432 16.981-102.187 16.981-176.469 0-320-143.573-320-320 0-36.267 6.357-71.040 17.536-103.552l-181.845-179.968c-4.096-3.968-6.357-9.472-6.357-15.147v-170.667c0-11.776 9.557-21.333 21.333-21.333h170.667c5.632 0 11.051 2.219 15.061 6.229l181.931 181.291c31.957-10.795 66.091-16.853 101.675-16.853 176.469 0 320 143.531 320 320 0 35.755-6.144 70.016-16.981 102.187l224.085 224.085c8.32 8.277 8.32 21.803 0 30.165zM832 908.501l55.168-55.168-55.168-55.168-55.168 55.168 55.168 55.168zM183.168-21.333h-140.501v140.459l163.499 161.792c30.891-60.032 80.085-108.971 140.331-139.52l-163.328-162.731zM490.667 149.333c-152.917 0-277.333 124.416-277.333 277.333s124.416 277.333 277.333 277.333 277.333-124.416 277.333-277.333-124.416-277.333-277.333-277.333zM775.765 571.264c-30.763 60.459-80.043 109.739-140.501 140.501l111.403 111.403 140.501-140.501-111.403-111.403zM917.333 712.832l-55.168 55.168 55.168 55.168 55.168-55.168-55.168-55.168zM170.667 85.333c0-11.782-9.551-21.333-21.333-21.333s-21.333 9.551-21.333 21.333c0 11.782 9.551 21.333 21.333 21.333s21.333-9.551 21.333-21.333zM234.667 149.333c0-11.782-9.551-21.333-21.333-21.333s-21.333 9.551-21.333 21.333c0 11.782 9.551 21.333 21.333 21.333s21.333-9.551 21.333-21.333z" />
<glyph unicode="&#xe92e;" glyph-name="hourglass-1" d="M874.667-21.333h-64v192c0 125.739-78.208 233.344-188.459 277.333 110.251 43.989 188.459 151.595 188.459 277.333v192h64c11.776 0 21.333 9.557 21.333 21.333s-9.557 21.333-21.333 21.333h-725.333c-11.776 0-21.333-9.557-21.333-21.333s9.557-21.333 21.333-21.333h64v-192c0-125.739 78.208-233.344 188.459-277.333-110.251-43.989-188.459-151.595-188.459-277.333v-192h-64c-11.776 0-21.333-9.557-21.333-21.333s9.557-21.333 21.333-21.333h725.333c11.776 0 21.333 9.557 21.333 21.333s-9.557 21.333-21.333 21.333zM256 917.333h512v-192c0-55.765-18.133-107.264-48.512-149.333h-414.976c-30.379 42.069-48.512 93.568-48.512 149.333v192zM343.211 533.333h337.536c-45.099-39.723-104.107-64-168.789-64s-123.605 24.277-168.747 64zM512 426.667c141.184 0 256-114.816 256-256v-21.333h-119.168l-121.771 121.771c-8.32 8.32-21.845 8.32-30.165 0l-121.728-121.771h-119.168v21.333c0 141.184 114.816 256 256 256zM256-21.333v128h128c5.675 0 11.093 2.261 15.104 6.229l112.896 112.939 112.896-112.896c4.011-4.011 9.429-6.272 15.104-6.272h128v-128h-512z" />
<glyph unicode="&#xe92f;" glyph-name="clock-3" d="M640 448h-128v213.333c0 11.776-9.557 21.333-21.333 21.333s-21.333-9.557-21.333-21.333v-234.667c0-11.776 9.557-21.333 21.333-21.333h149.333c11.776 0 21.333 9.557 21.333 21.333s-9.557 21.333-21.333 21.333zM832 960h-640c-105.856 0-192-86.144-192-192v-640c0-105.899 86.144-192 192-192h640c105.856 0 192 86.101 192 192v640c0 105.856-86.144 192-192 192zM981.333 128c0-82.347-66.987-149.333-149.333-149.333h-640c-82.347 0-149.333 66.987-149.333 149.333v640c0 82.347 66.987 149.333 149.333 149.333h640c82.347 0 149.333-66.987 149.333-149.333v-640zM512 832c-211.712 0-384-172.288-384-384s172.288-384 384-384 384 172.288 384 384-172.288 384-384 384zM512 106.667c-188.203 0-341.333 153.131-341.333 341.333s153.131 341.333 341.333 341.333 341.333-153.131 341.333-341.333-153.131-341.333-341.333-341.333z" />
<glyph unicode="&#xe930;" glyph-name="calendar-1" d="M1002.667 874.667h-149.333v64c0 11.776-9.557 21.333-21.333 21.333h-128c-11.776 0-21.333-9.557-21.333-21.333v-64h-341.333v64c0 11.776-9.557 21.333-21.333 21.333h-128c-11.776 0-21.333-9.557-21.333-21.333v-64h-149.333c-11.776 0-21.333-9.557-21.333-21.333v-896c0-11.776 9.557-21.333 21.333-21.333h981.333c11.776 0 21.333 9.557 21.333 21.333v896c0 11.776-9.557 21.333-21.333 21.333zM725.333 917.333h85.333v-128h-85.333v128zM213.333 917.333h85.333v-128h-85.333v128zM170.667 832v-64c0-11.776 9.557-21.333 21.333-21.333h128c11.776 0 21.333 9.557 21.333 21.333v64h341.333v-64c0-11.776 9.557-21.333 21.333-21.333h128c11.776 0 21.333 9.557 21.333 21.333v64h128v-170.667h-938.667v170.667h128zM42.667-21.333v640h938.667v-640h-938.667zM490.667 149.333h-64v320c0 8.619-5.205 16.427-13.184 19.712-7.979 3.328-17.152 1.493-23.253-4.608l-85.333-85.333c-8.32-8.32-8.32-21.845 0-30.165s21.845-8.32 30.165 0l48.939 48.896v-268.501h-64c-11.776 0-21.333-9.557-21.333-21.333s9.557-21.333 21.333-21.333h170.667c11.776 0 21.333 9.557 21.333 21.333s-9.557 21.333-21.333 21.333zM725.333 490.667h-213.333c-11.776 0-21.333-9.557-21.333-21.333v-42.667c0-11.776 9.557-21.333 21.333-21.333s21.333 9.557 21.333 21.333v21.333h161.195l-48-128h-70.528c-11.776 0-21.333-9.557-21.333-21.333s9.557-21.333 21.333-21.333h54.528l-53.205-141.824c-4.139-11.051 1.451-23.339 12.459-27.52 11.179-4.139 23.381 1.579 27.477 12.459l58.88 156.885h27.861c11.776 0 21.333 9.557 21.333 21.333s-9.557 21.333-21.333 21.333h-11.861l53.205 141.824c2.475 6.571 1.536 13.909-2.432 19.669-4.053 5.717-10.581 9.173-17.579 9.173z" />
<glyph unicode="&#xe931;" glyph-name="alarm-clock" d="M935.893 362.667c0 235.264-191.403 426.667-426.667 426.667s-426.667-191.403-426.667-426.667c0-137.131 65.28-258.987 166.101-337.067l-53.163-53.163c-8.32-8.32-8.32-21.845 0-30.165s21.845-8.32 30.165 0l58.581 58.581c65.365-40.875 142.336-64.853 224.981-64.853s159.573 23.979 224.981 64.811l58.581-58.581c8.32-8.32 21.845-8.32 30.165 0s8.32 21.845 0 30.165l-53.163 53.163c100.821 78.123 166.101 199.979 166.101 337.109zM509.227-21.333c-211.712 0-384 172.288-384 384s172.288 384 384 384 384-172.288 384-384-172.288-384-384-384zM530.56 618.667c-11.776 0-21.333-9.557-21.333-21.333v-234.667h-149.333c-11.776 0-21.333-9.557-21.333-21.333s9.557-21.333 21.333-21.333h170.667c11.776 0 21.333 9.557 21.333 21.333v256c0 11.776-9.557 21.333-21.333 21.333zM97.621 582.229c8.32 8.32 8.32 21.845 0 30.165-58.283 58.283-58.283 146.219 0 204.501 56.363 56.405 148.139 56.405 204.501 0 8.32-8.32 21.845-8.32 30.165 0s8.32 21.845 0 30.165c-72.491 72.533-192.341 72.533-264.832 0-75.477-75.52-75.477-189.355 0-264.832 4.181-4.139 9.643-6.229 15.104-6.229s10.88 2.091 15.061 6.229zM950.955 847.104c-72.491 72.533-192.341 72.533-264.832 0-8.32-8.32-8.32-21.845 0-30.165s21.845-8.32 30.165 0c56.363 56.405 148.139 56.405 204.501 0 58.283-58.283 58.283-146.219 0-204.501-8.32-8.32-8.32-21.845 0-30.165 4.181-4.181 9.643-6.272 15.104-6.272s10.923 2.091 15.104 6.229c75.435 75.52 75.435 189.355-0.043 264.875z" />
<glyph unicode="&#xe932;" glyph-name="inbox-music" d="M1021.099 266.752l-149.333 256c-3.84 6.528-10.837 10.581-18.432 10.581h-42.667v362.667c0 11.776-9.557 21.333-21.333 21.333h-554.667c-11.776 0-21.333-9.557-21.333-21.333v-362.667h-42.667c-7.595 0-14.592-4.053-18.432-10.581l-149.333-256c-0.981-1.664-2.901-9.003-2.901-10.752v-298.667c0-11.776 9.557-21.333 21.333-21.333h981.333c11.776 0 21.333 9.557 21.333 21.333v298.667c0 1.749-1.92 9.088-2.901 10.752zM182.912 490.667h30.421v-149.333c0-11.776 9.557-21.333 21.333-21.333s21.333 9.557 21.333 21.333v533.333h512v-533.333c0-11.776 9.557-21.333 21.333-21.333s21.333 9.557 21.333 21.333v149.333h30.421l124.459-213.333h-261.547c-11.776 0-21.333-9.557-21.333-21.333v-42.667c0-35.285-28.715-64-64-64h-192c-35.285 0-64 28.715-64 64v42.667c0 11.776-9.557 21.333-21.333 21.333h-282.837l124.416 213.333zM981.333-21.333h-938.667v256h277.333v-21.333c0-58.795 47.872-106.667 106.667-106.667h192c58.795 0 106.667 47.872 106.667 106.667v21.333h256v-256zM384 384c31.915 0 85.333 0 85.333 54.187v232.405l170.667 102.4v-132.992h-57.6c-40.277 0-83.627-29.781-83.627-95.147 0-61.824 46.507-95.189 90.283-95.189 32.725 0 93.568 0 93.568 54.144v306.859c0 7.68-4.139 14.763-10.795 18.56s-14.891 3.669-21.504-0.256l-213.333-128c-6.4-3.883-10.325-10.795-10.325-18.304v-128h-41.088c-54.101 0-87.723-32.725-87.723-85.333s33.024-85.333 86.144-85.333zM640 503.765c0-8.576-12.843-11.477-50.901-11.477-22.955 0-47.616 16.427-47.616 52.523 0 32.384 15.701 52.48 40.96 52.48h57.557v-93.525zM385.579 512h41.088v-73.813c0-7.424 0-11.52-42.667-11.52-38.528 0-43.477 22.784-43.477 42.667 0 18.304 4.693 42.667 45.056 42.667z" />
<glyph unicode="&#xe933;" glyph-name="email-music" d="M1014.443 487.125c0 0-159.829 109.909-161.109 110.763v340.779c0 11.776-9.557 21.333-21.333 21.333h-640c-11.776 0-21.333-9.557-21.333-21.333v-340.779l-161.024-110.72c-5.845-3.883-9.643-11.605-9.643-17.835v-448c0-47.061 38.272-85.333 85.333-85.333h853.333c47.061 0 85.333 38.272 85.333 85.333v448c0 5.888-3.413 13.568-9.557 17.792zM964.608 469.589l-111.275-74.155v150.656l111.275-76.501zM170.667 395.435l-111.275 74.197 111.275 76.459v-150.656zM938.667-21.333h-853.333c-23.509 0-42.667 19.157-42.667 42.667v408.107l222.848-148.523c3.627-2.432 7.723-3.584 11.819-3.584 6.912 0 13.653 3.328 17.792 9.515 6.528 9.813 3.883 23.040-5.931 29.568l-75.861 50.56v550.357h597.333v-550.357l-75.819-50.56c-9.813-6.528-12.459-19.755-5.931-29.568 4.096-6.187 10.88-9.515 17.749-9.515 4.053 0 8.149 1.152 11.819 3.584l222.848 148.523v-408.107c0-23.509-19.157-42.667-42.667-42.667zM674.645 272.683c-3.755 2.987-8.448 4.651-13.312 4.651h-298.667c-4.864 0-9.557-1.664-13.312-4.651l-213.333-170.667c-9.173-7.381-10.667-20.779-3.328-29.995 7.381-9.131 20.779-10.709 29.995-3.328l207.445 165.973h283.691l207.488-166.016c3.968-3.157 8.661-4.651 13.355-4.651 6.272 0 12.459 2.731 16.683 8.021 7.339 9.216 5.845 22.613-3.328 29.995l-213.376 170.667zM384 362.667c31.915 0 85.333 0 85.333 54.101v253.824l170.667 102.4v-154.325h-57.6c-40.277 0-83.627-29.824-83.627-95.232 0-61.824 46.507-95.147 90.283-95.147 32.725 0 93.568 0 93.568 54.187v328.192c0 7.68-4.139 14.763-10.795 18.56s-14.933 3.669-21.504-0.256l-213.333-128c-6.4-3.883-10.325-10.795-10.325-18.304v-149.333h-41.088c-54.101 0-87.723-32.725-87.723-85.333s33.024-85.333 86.144-85.333zM640 482.432c0-8.576-12.843-11.52-50.901-11.52-22.955 0-47.616 16.427-47.616 52.48-0.043 32.469 15.659 52.608 40.917 52.608h57.6v-93.568zM385.579 490.667h41.088v-73.899c0-7.381 0-11.435-42.667-11.435-38.528 0-43.477 22.784-43.477 42.667 0 18.304 4.693 42.667 45.056 42.667z" />
<glyph unicode="&#xe934;" glyph-name="email-compose" d="M1017.813 420.48l-106.667 106.667c-8.32 8.32-21.845 8.32-30.165 0l-320.085-320.085c-2.389-2.389-4.608-6.485-5.419-9.216l-42.667-149.333c-2.133-7.424-0.043-15.488 5.419-20.949 4.096-4.053 9.515-6.229 15.104-6.229 1.963 0 3.925 0.256 5.845 0.853l149.333 42.667c2.688 0.811 6.827 3.029 9.216 5.419l320.085 320.085c8.363 8.32 8.363 21.803 0 30.123zM682.667 115.499l-76.501 76.501 204.587 204.587 76.501-76.501-204.587-204.587zM586.539 151.253l55.424-55.381-77.568-22.144 22.144 77.525zM917.419 350.251l-76.501 76.501 55.168 55.168 76.501-76.501-55.168-55.168zM469.333 320h-384c-23.467 0-42.581 19.157-42.581 42.667v469.333c0 4.651 1.28 8.917 2.645 13.141l410.581-328.448c3.925-3.115 8.661-4.693 13.355-4.693s9.429 1.579 13.312 4.651l410.709 328.576c1.408-4.267 2.688-8.576 2.688-13.269v-234.667c0-11.776 9.557-21.333 21.333-21.333s21.333 9.557 21.333 21.333v234.709c0 47.104-38.315 85.333-85.419 85.333h-767.957c-47.019 0-85.248-38.229-85.248-85.333v-469.333c0-47.061 38.229-85.333 85.248-85.333h384c11.776 0 21.333 9.557 21.333 21.333s-9.557 21.333-21.333 21.333zM853.333 874.667c2.432 0 4.48-0.981 6.784-1.365l-390.784-312.661-390.784 312.661c2.304 0.384 4.352 1.365 6.784 1.365h768z" />
<glyph unicode="&#xe935;" glyph-name="email-2" d="M938.667 789.333h-853.333c-47.061 0-85.333-38.229-85.333-85.333v-512c0-47.061 38.272-85.333 85.333-85.333h853.333c47.061 0 85.333 38.272 85.333 85.333v512c0 47.104-38.272 85.333-85.333 85.333zM981.333 192c0-23.509-19.157-42.667-42.667-42.667h-853.333c-23.509 0-42.667 19.157-42.667 42.667v512c0 23.509 19.157 42.667 42.667 42.667h853.333c23.509 0 42.667-19.157 42.667-42.667v-512zM892.587 608.896c-6.4 9.856-19.627 12.715-29.483 6.315l-351.104-227.115-351.104 227.157c-9.856 6.357-23.083 3.541-29.483-6.357-6.4-9.856-3.541-23.083 6.357-29.483l362.667-234.667c3.541-2.304 7.552-3.413 11.563-3.413s8.064 1.109 11.563 3.413l362.667 234.667c9.899 6.4 12.757 19.627 6.357 29.483zM288.085 381.184l-149.333-85.333c-10.24-5.803-13.781-18.859-7.936-29.099 3.925-6.912 11.136-10.752 18.517-10.752 9.301 0 151.851 83.541 159.915 88.149 10.24 5.803 13.781 18.859 7.936 29.099-5.888 10.24-18.901 13.867-29.099 7.936zM885.248 295.851l-149.333 85.333c-10.283 5.931-23.296 2.304-29.099-7.936-5.845-10.24-2.304-23.296 7.936-29.099l149.333-85.333c10.027-5.76 23.168-2.432 29.099 7.936 5.845 10.197 2.304 23.296-7.936 29.099z" />
</font>
</defs>
</svg>
