<?xml version="1.0" standalone="no"?>
<!DOCTYPE svg PUBLIC "-//W3C//DTD SVG 1.1//EN" "http://www.w3.org/Graphics/SVG/1.1/DTD/svg11.dtd" >
<svg xmlns="http://www.w3.org/2000/svg" xmlns:xlink="http://www.w3.org/1999/xlink" version="1.1">
<metadata></metadata>
<defs>
<font id="alternate_gothic_atfmedium" horiz-adv-x="535" >
<font-face units-per-em="1000" ascent="750" descent="-250" />
<missing-glyph horiz-adv-x="148" />
<glyph unicode="&#xfb01;" horiz-adv-x="448" d="M11 450v80h66v60q0 64 32 96.5t92 32.5q26 0 61 -5v-81q-18 3 -42 3q-49 0 -49 -57v-49h91v-80h-91v-377l1 -73h-96l1 73v377h-66zM303 530h96l-1 -73v-384l1 -73h-96l1 73v384zM304 616v99h94v-99h-94z" />
<glyph unicode="&#xfb02;" horiz-adv-x="448" d="M11 450v80h66v60q0 64 32 96.5t92 32.5q26 0 61 -5v-81q-18 3 -42 3q-49 0 -49 -57v-49h91v-80h-91v-377l1 -73h-96l1 73v377h-66zM303 715h96l-1 -73v-569l1 -73h-96l1 73v569z" />
<glyph unicode="&#xfb03;" horiz-adv-x="670" d="M11 450v80h66v60q0 64 32 96.5t92 32.5q26 0 61 -5v-81q-18 3 -42 3q-49 0 -49 -57v-49h128v60q0 64 32 96.5t92 32.5q26 0 61 -5v-81q-18 3 -42 3q-49 0 -49 -57v-49h91v-80h-91v-377l1 -73h-96l1 73v377h-128v-377l1 -73h-96l1 73v377h-66zM525 530h96l-1 -73v-384 l1 -73h-96l1 73v384zM526 616v99h94v-99h-94z" />
<glyph unicode="&#xfb04;" horiz-adv-x="672" d="M11 450v80h66v60q0 64 32 96.5t92 32.5q26 0 61 -5v-81q-18 3 -42 3q-49 0 -49 -57v-49h128v60q0 64 32 96.5t92 32.5q26 0 61 -5v-81q-18 3 -42 3q-49 0 -49 -57v-49h91v-80h-91v-377l1 -73h-96l1 73v377h-128v-377l1 -73h-96l1 73v377h-66zM527 715h96l-1 -73v-569 l1 -73h-96l1 73v569z" />
<glyph horiz-adv-x="0" />
<glyph horiz-adv-x="333" />
<glyph horiz-adv-x="0" />
<glyph horiz-adv-x="0" />
<glyph unicode="&#xd;" horiz-adv-x="250" />
<glyph unicode=" "  horiz-adv-x="148" />
<glyph unicode="&#x09;" horiz-adv-x="148" />
<glyph unicode="&#xa0;" horiz-adv-x="148" />
<glyph unicode="!" horiz-adv-x="202" d="M53 0v116h96v-116h-96zM68 211l-21 504h108l-21 -504h-66z" />
<glyph unicode="&#x22;" horiz-adv-x="336" d="M71 715h98l-87 -241h-51zM223 715h99l-88 -241h-50z" />
<glyph unicode="#" horiz-adv-x="563" d="M435 715h70l-44 -189h78v-82h-97l-39 -172h87v-82h-106l-44 -190h-70l44 190h-141l-43 -190h-70l43 190h-80v82h99l40 172h-88v82h107l43 189h70l-43 -189h140zM232 444l-40 -172h141l39 172h-140z" />
<glyph unicode="$" horiz-adv-x="402" d="M166 749h73v-64q109 -21 128 -157l-98 -12q-10 81 -69 81q-28 0 -45.5 -18t-17.5 -47q0 -31 17.5 -56.5t57.5 -56.5l64 -50q98 -75 98 -182q0 -66 -36 -108t-99 -52v-97h-73v97q-60 10 -96 54.5t-45 117.5l97 13q10 -96 80 -96q33 0 52 18t19 49q0 57 -74 115l-65 51 q-97 75 -97 178q0 62 35.5 105t93.5 54v63z" />
<glyph unicode="%" horiz-adv-x="731" d="M164 329q-60 0 -95 29q-42 34 -42 136v63q0 102 42 136q35 29 95 29q61 0 96 -29q42 -34 42 -136v-63q0 -102 -42 -136q-35 -29 -96 -29zM164 401q17 0 27 6.5t14 20t5 23t1 26.5v97q0 17 -1 26.5t-5 23t-14 20t-27 6.5q-16 0 -26.5 -6.5t-14 -20t-4.5 -23t-1 -26.5v-97 q0 -17 1 -26.5t4.5 -23t14 -20t26.5 -6.5zM566 -7q-60 0 -95 29q-42 34 -42 136v63q0 102 42 136q35 29 95 29q61 0 96 -29q42 -34 42 -136v-63q0 -102 -42 -136q-35 -29 -96 -29zM566 65q17 0 27 6.5t14 20t5 23t1 26.5v97q0 17 -1 26.5t-5 23t-14 20t-27 6.5 q-16 0 -26.5 -6.5t-14 -20t-4.5 -23t-1 -26.5v-97q0 -17 1 -26.5t4.5 -23t14 -20t26.5 -6.5zM188 0l275 715h80l-275 -715h-80z" />
<glyph unicode="&#x26;" horiz-adv-x="488" d="M216 727q64 0 101 -42.5t37 -110.5q0 -53 -26.5 -100t-93.5 -119q44 -80 95 -153q35 69 49 138l84 -20q-21 -96 -74 -191q39 -41 73 -45l-1 -96q-66 0 -131 59q-57 -59 -140 -59q-76 0 -119.5 46t-43.5 119q0 102 96 206q-60 121 -60 195q0 76 43 124.5t111 48.5z M271 113q-50 66 -106 166q-42 -58 -42 -114q0 -42 21 -63.5t56 -21.5q38 0 71 33zM155 562q0 -52 39 -132q36 38 52 69.5t16 70.5q0 38 -13.5 57.5t-36.5 19.5q-25 0 -41 -22.5t-16 -62.5z" />
<glyph unicode="'" horiz-adv-x="184" d="M31 474l40 241h98l-87 -241h-51z" />
<glyph unicode="(" horiz-adv-x="271" d="M261 -138h-80q-58 56 -104.5 174t-46.5 249q0 135 44 248t107 182h80q-23 -36 -38.5 -65.5t-39 -85t-36 -126.5t-12.5 -150q0 -80 12.5 -150t36.5 -126t38.5 -83.5t38.5 -66.5z" />
<glyph unicode=")" horiz-adv-x="271" d="M90 -138h-80q24 39 38.5 66.5t38.5 83.5t36.5 126t12.5 150q0 79 -12.5 150t-36 126.5t-39 85t-38.5 65.5h80q63 -69 107 -182t44 -248q0 -131 -46.5 -249t-104.5 -174z" />
<glyph unicode="*" horiz-adv-x="368" d="M161 715h44l16 -113l113 21l15 -42l-102 -51l53 -101l-35 -25l-79 79l-80 -80l-35 25l50 98l-101 52l14 43l110 -19z" />
<glyph unicode="+" d="M222 558h93v-215h211v-88h-211v-214h-93v214h-213v88h213v215z" />
<glyph unicode="," horiz-adv-x="190" d="M42 1v115h106v-115l-61 -126h-53l49 126h-41z" />
<glyph unicode="-" horiz-adv-x="279" d="M44 251v96h191v-96h-191z" />
<glyph unicode="." horiz-adv-x="183" d="M43 0v116h97v-116h-97z" />
<glyph unicode="/" horiz-adv-x="345" d="M92 -82h-79l238 797h81z" />
<glyph unicode="0" horiz-adv-x="446" d="M223 -12q-74 0 -117 38q-29 26 -42.5 73.5t-13.5 145.5v225q0 98 13.5 145.5t42.5 73.5q43 38 117 38t117 -38q29 -26 42.5 -73.5t13.5 -145.5v-225q0 -98 -13.5 -145.5t-42.5 -73.5q-43 -38 -117 -38zM223 80q21 0 35 8.5t21.5 19t11 32.5t4 36t0.5 43v277q0 29 -0.5 43 t-4 36t-11 32.5t-21.5 19t-35 8.5t-35 -8.5t-21.5 -19t-11 -32.5t-4 -36t-0.5 -43v-277q0 -29 0.5 -43t4 -36t11 -32.5t21.5 -19t35 -8.5z" />
<glyph unicode="1" horiz-adv-x="276" d="M107 570h-87v61q48 18 83.5 43t46.5 45h61l-1 -73v-573l1 -73h-105l1 73v497z" />
<glyph unicode="2" horiz-adv-x="409" d="M376 546v-2q0 -69 -35 -142.5t-102 -172.5l-97 -138h228v-91h-341v82l127 187q119 174 119 273v2q0 92 -66 92q-75 0 -75 -121v-2h-98v2q0 106 46 159t129 53q82 0 123.5 -49t41.5 -132z" />
<glyph unicode="3" horiz-adv-x="412" d="M32 196h99v-2q0 -22 0.5 -33.5t4 -29.5t10.5 -27.5t20.5 -17t33.5 -7.5q26 0 42 10.5t22 31.5t7.5 34.5t1.5 37.5v7q0 69 -25 98t-78 29h-26v92h26q50 0 72 26.5t22 89.5v6q0 20 -1 31.5t-6.5 29t-19.5 26t-36 8.5q-23 0 -37.5 -9.5t-20 -28.5t-6.5 -32t-1 -36v-2h-98v2 q0 110 58 160q43 37 105 37q69 0 113 -39q50 -44 50 -147v-6q0 -66 -22 -101.5t-68 -54.5v-4q100 -32 100 -175v-7q0 -115 -55 -165q-45 -40 -118 -40t-116 38q-53 46 -53 168v2z" />
<glyph unicode="4" horiz-adv-x="428" d="M236 0l1 73v94h-216v100l207 448h109l-1 -73v-387h70v-88h-70v-94l1 -73h-101zM106 255h131v224q0 23 5 78h-3q-8 -27 -28 -71z" />
<glyph unicode="5" horiz-adv-x="412" d="M203 -12q-72 0 -115 38q-53 48 -53 169v1h99v-1q0 -25 0.5 -37t4 -30.5t10 -27t20 -15t32.5 -6.5q21 0 35 7.5t21.5 17.5t11 31t4 35t0.5 42v61q0 28 -0.5 41.5t-3.5 34t-9 30t-18 17t-29 7.5q-48 0 -81 -56h-83l9 368h299v-91h-214l-5 -178q51 48 108 48q50 0 84 -31 q24 -22 35 -65t11 -125v-61q0 -136 -55 -184q-45 -40 -118 -40z" />
<glyph unicode="6" horiz-adv-x="435" d="M153 495v-106q52 55 117 55q47 0 80 -30q26 -23 37.5 -65.5t11.5 -128.5v-10q0 -137 -56 -184q-44 -38 -118 -38q-73 0 -118 38q-29 26 -43 73.5t-14 141.5v233q0 98 14 145t43 72q43 36 112 36q73 0 116 -38q52 -47 52 -159v-2h-99v2q0 24 -1.5 37.5t-7 32t-20 27.5 t-38.5 9q-20 0 -33 -8t-20 -18t-10.5 -32t-4 -37t-0.5 -46zM235 353q-51 0 -82 -54v-79q0 -25 0.5 -37.5t2.5 -32.5t6.5 -30t12 -21t20.5 -15.5t31 -4.5q25 0 40 9t21 30.5t7.5 38.5t1.5 53v10q0 35 -1 52t-6.5 39.5t-18.5 32t-35 9.5z" />
<glyph unicode="7" horiz-adv-x="351" d="M172 0h-102l152 624h-214v91h317v-67z" />
<glyph unicode="8" horiz-adv-x="418" d="M209 -12q-72 0 -117 40q-54 49 -54 165v26q0 119 87 158v4q-77 44 -77 144v28q0 95 51 139q41 35 110 35q70 0 110 -36q51 -45 51 -138v-28q0 -100 -77 -144v-4q87 -39 87 -158v-26q0 -116 -54 -165q-45 -40 -117 -40zM209 79q20 0 34 8t21 18t10.5 28.5t4 29.5t0.5 30 v25q0 17 -2.5 33t-9 35t-21.5 30.5t-37 11.5q-70 0 -70 -110v-25q0 -19 0.5 -30t4 -29.5t10.5 -28.5t21 -18t34 -8zM210 422q62 0 62 97v25q0 18 -1 29.5t-6.5 29.5t-19.5 27t-36 9t-36 -9t-19.5 -27t-6.5 -29.5t-1 -29.5v-25q0 -22 4 -41t19 -37.5t41 -18.5z" />
<glyph unicode="9" horiz-adv-x="435" d="M214 79q20 0 33 8t20 18t10.5 32t4 37t0.5 46v106q-52 -55 -117 -55q-47 0 -80 30q-26 23 -37.5 65.5t-11.5 128.5v10q0 137 56 184q44 38 118 38q73 0 118 -38q29 -26 43 -73.5t14 -141.5v-233q0 -98 -14 -145t-43 -72q-43 -36 -112 -36q-73 0 -116 38q-52 47 -52 159v2 h99v-2q0 -24 1.5 -37.5t7 -32t20 -27.5t38.5 -9zM200 362q50 0 82 53v80q0 25 -0.5 37.5t-2.5 32.5t-6.5 30t-12 21t-20.5 15.5t-31 4.5q-25 0 -40 -9t-21 -30.5t-7.5 -38.5t-1.5 -53v-10q0 -35 1 -52t6.5 -39.5t18.5 -32t35 -9.5z" />
<glyph unicode=":" horiz-adv-x="187" d="M46 0v116h96v-116h-96zM46 414v116h96v-116h-96z" />
<glyph unicode=";" horiz-adv-x="207" d="M51 1v115h107v-115l-62 -126h-52l48 126h-41zM51 414v116h96v-116h-96z" />
<glyph unicode="&#x3c;" d="M22 329l476 226v-101l-284 -124l-64 -25v-11l64 -23l284 -125v-100l-476 224v59z" />
<glyph unicode="=" d="M29 454h476v-89h-476v89zM29 233h476v-88h-476v88z" />
<glyph unicode="&#x3e;" d="M37 555l476 -226v-59l-476 -224v100l284 125l64 23v11l-64 25l-284 124v101z" />
<glyph unicode="?" horiz-adv-x="353" d="M117 0v116h96v-116h-96zM208 211h-85v62q0 42 11.5 83.5t23 63.5t31.5 57q3 5 11 19.5t11.5 20t9 17.5t8 19t4.5 17t2 19q0 51 -55 51q-50 0 -82 -74l-82 32q51 129 169 129q68 0 107.5 -37t39.5 -100q0 -64 -55 -144q-23 -34 -34 -51.5t-23 -53t-12 -72.5v-58z" />
<glyph unicode="@" horiz-adv-x="742" d="M299 54q-51 0 -80 45t-29 121q0 115 58.5 211t130.5 96q32 0 54.5 -25t28.5 -66h3l20 80h82l-71 -312q-6 -29 -6 -41q0 -19 11 -29.5t27 -10.5q46 0 82 79.5t35 179.5q-2 113 -64.5 184.5t-166.5 71.5q-124 0 -213 -103.5t-89 -283.5q0 -162 74.5 -237t192.5 -75 q97 0 184 48l29 -59q-89 -60 -219 -60q-70 0 -132 23t-112 68t-79 121.5t-29 174.5q0 108 34 196.5t90 144t124.5 85.5t141.5 30q137 0 220.5 -97t83.5 -239q0 -127 -56.5 -224.5t-147.5 -97.5q-42 0 -70 22.5t-32 62.5q-43 -84 -110 -84zM326 139q49 0 78 72q33 82 33 154 q0 37 -14 58.5t-36 21.5q-31 0 -56.5 -43.5t-38 -96t-12.5 -94.5q0 -72 46 -72z" />
<glyph unicode="A" horiz-adv-x="422" d="M143 158l-26 -158h-106l130 715h140l130 -715h-104l-27 158h-137zM196 482l-38 -231h107l-39 231q-3 19 -7.5 58.5t-4.5 41.5h-6q-4 -50 -12 -100z" />
<glyph unicode="B" horiz-adv-x="447" d="M212 0h-156l1 73v569l-1 73h153q95 0 144.5 -47.5t49.5 -130.5v-2q0 -114 -90 -158v-4q106 -41 106 -163v-2q0 -102 -53 -155t-154 -53zM160 91h43q58 0 83 30t25 92v2q0 54 -27 83.5t-77 29.5h-47v-237zM160 624v-206h46q44 0 68.5 30t24.5 78v3q0 95 -98 95h-41z" />
<glyph unicode="C" horiz-adv-x="439" d="M228 -12q-78 0 -121 38q-29 25 -43 74t-14 146v224q0 96 14 145t43 74q43 38 121 38q74 0 118 -38q31 -26 44.5 -73.5t13.5 -131.5v-2h-104v2q0 26 -0.5 38.5t-2.5 33.5t-6.5 31.5t-12 22t-20.5 16.5t-31 5q-21 0 -35.5 -8.5t-22 -19.5t-11 -33t-4 -36t-0.5 -42v-268 q0 -25 0.5 -37t2.5 -32t6.5 -30t12 -21t20.5 -15.5t31 -4.5t31.5 4.5t21.5 17t12.5 23.5t6.5 34t2.5 38t0.5 46v2h104v-2q0 -99 -14.5 -147t-44.5 -74q-45 -38 -119 -38z" />
<glyph unicode="D" horiz-adv-x="460" d="M224 715q76 0 124 -41q33 -28 47.5 -73.5t14.5 -129.5v-227q0 -84 -14.5 -129.5t-47.5 -73.5q-48 -41 -124 -41h-168l1 73v569l-1 73h168zM208 624h-48v-533h48q41 0 63 19q35 29 35 106v283q0 77 -35 106q-22 19 -63 19z" />
<glyph unicode="E" horiz-adv-x="393" d="M321 327h-161v-236h204v-91h-308l1 73v569l-1 73h304v-91h-200v-205h161v-92z" />
<glyph unicode="F" horiz-adv-x="368" d="M321 327h-161v-254l1 -73h-105l1 73v569l-1 73h303v-91h-199v-205h161v-92z" />
<glyph unicode="G" horiz-adv-x="463" d="M230 276v93h180v-369h-50l-21 59h-2q-37 -69 -121 -69q-67 0 -109 36q-29 25 -43 74t-14 145v225q0 94 13.5 143.5t44.5 75.5q44 38 119 38t119 -38q30 -26 44 -71.5t14 -133.5v-2h-104v2q0 32 -0.5 47.5t-4 38.5t-11 33.5t-22 19t-35.5 8.5t-35.5 -8.5t-22 -19t-11 -32 t-4 -36t-0.5 -43.5v-269q0 -30 0.5 -44.5t4 -36.5t11 -32t21.5 -18t35 -8q24 0 40.5 10t24.5 22.5t12.5 37t5 39.5t0.5 43v40h-79z" />
<glyph unicode="H" horiz-adv-x="467" d="M307 715h104l-1 -73v-569l1 -73h-104l1 73v254h-148v-254l1 -73h-105l1 73v569l-1 73h105l-1 -73v-223h148v223z" />
<glyph unicode="I" horiz-adv-x="217" d="M56 715h105l-1 -73v-569l1 -73h-105l1 73v569z" />
<glyph unicode="J" horiz-adv-x="277" d="M14 -4v96h16q48 0 69.5 20.5t21.5 69.5v460l-1 73h105l-1 -73v-468q0 -99 -43.5 -138.5t-143.5 -39.5h-23z" />
<glyph unicode="K" horiz-adv-x="455" d="M325 715h111l-147 -273l155 -442h-111l-118 341l-55 -99v-169l1 -73h-105l1 73v569l-1 73h105l-1 -73v-162q0 -10 -0.5 -34t-0.5 -33h3q10 18 32 62z" />
<glyph unicode="L" horiz-adv-x="356" d="M345 0h-289l1 73v569l-1 73h105l-1 -73v-551h185v-91z" />
<glyph unicode="M" horiz-adv-x="598" d="M56 0l1 73v569l-1 73h140l89 -411q9 -39 13 -91h4q4 52 13 91l88 411h139l-1 -73v-569l1 -73h-95l1 73v379q0 17 2 53.5t2 38.5h-4q-13 -80 -15 -90l-96 -454h-77l-95 454q-9 41 -15 90h-4q3 -75 3 -92v-379l1 -73h-94z" />
<glyph unicode="N" horiz-adv-x="500" d="M56 715h107l151 -377q13 -34 31 -89h4q-5 65 -5 94v299l-1 73h101l-1 -73v-569l1 -73h-95l-162 411q-17 41 -32 89h-4q5 -65 5 -94v-333l1 -73h-101l1 73v569z" />
<glyph unicode="O" horiz-adv-x="454" d="M227 -12q-75 0 -119 38q-30 26 -44 73.5t-14 145.5v225q0 98 14 145.5t44 73.5q46 38 119 38q75 0 119 -38q30 -26 44.5 -73.5t14.5 -145.5v-225q0 -98 -14.5 -145.5t-44.5 -73.5q-43 -38 -119 -38zM227 84q21 0 36 8.5t22 19t11 32.5t4.5 36t0.5 43v269q0 29 -0.5 43 t-4.5 36t-11 32.5t-22 19t-36 8.5t-35.5 -8.5t-22 -19t-11 -32.5t-4 -36t-0.5 -43v-269q0 -29 0.5 -43t4 -36t11 -32.5t22 -19t35.5 -8.5z" />
<glyph unicode="P" horiz-adv-x="425" d="M56 0l1 73v569l-1 73h155q112 0 156 -55.5t44 -152.5v-2q0 -98 -44 -153t-156 -55h-51v-224l1 -73h-105zM160 387h39q60 0 83 31t23 87v2q0 56 -23 86.5t-83 30.5h-39v-237z" />
<glyph unicode="Q" horiz-adv-x="454" d="M227 -12q-75 0 -119 38q-30 26 -44 73.5t-14 145.5v225q0 98 14 145.5t44 73.5q46 38 119 38q75 0 119 -38q30 -26 44.5 -73.5t14.5 -145.5v-225q0 -125 -27 -179q19 -20 63 -20v-98q-91 0 -134 54q-36 -14 -80 -14zM227 84q21 0 36 8.5t22 19t11 32.5t4.5 36t0.5 43v269 q0 29 -0.5 43t-4.5 36t-11 32.5t-22 19t-36 8.5t-35.5 -8.5t-22 -19t-11 -32.5t-4 -36t-0.5 -43v-269q0 -29 0.5 -43t4 -36t11 -32.5t22 -19t35.5 -8.5z" />
<glyph unicode="R" horiz-adv-x="450" d="M221 302h-61v-229l1 -73h-105l1 73v569l-1 73h155q112 0 156 -55t44 -152v-2q0 -136 -91 -182l108 -324h-110zM160 624v-234h45q100 0 100 116v2q0 55 -23 85.5t-83 30.5h-39z" />
<glyph unicode="S" horiz-adv-x="421" d="M19 183l100 13q14 -112 97 -112q37 0 57 20.5t20 56.5q0 65 -82 132l-74 61q-104 81 -104 193q0 82 49.5 131t130.5 49q78 0 123 -47t55 -131l-102 -14q-8 96 -79 96q-33 0 -52.5 -21t-19.5 -58q0 -60 81 -124l73 -61q106 -82 106 -200q0 -83 -49.5 -131t-133.5 -48 q-85 0 -135.5 51t-60.5 144z" />
<glyph unicode="T" horiz-adv-x="382" d="M369 624h-127v-551l1 -73h-105l1 73v551h-127v91h357v-91z" />
<glyph unicode="U" horiz-adv-x="457" d="M301 715h105l-1 -73v-473q0 -86 -47 -133.5t-130 -47.5q-82 0 -128.5 47.5t-46.5 133.5v473l-1 73h105l-1 -73v-462q0 -96 72 -96q74 0 74 96v462z" />
<glyph unicode="V" horiz-adv-x="413" d="M223 290l80 425h103l-142 -715h-114l-143 715h106l79 -425q10 -61 14 -107h4q3 41 13 107z" />
<glyph unicode="W" horiz-adv-x="605" d="M128 0l-113 715h101l58 -402q8 -56 9 -92h4q5 67 9 92l62 402h90l61 -402q6 -36 10 -92h4q2 46 8 92l59 402h99l-113 -715h-100l-64 383q-6 34 -8 92h-4q-5 -68 -9 -92l-63 -383h-100z" />
<glyph unicode="X" horiz-adv-x="429" d="M215 264h-4l-92 -264h-109l144 380l-135 335h109l86 -236h4l84 236h107l-134 -335l144 -380h-111z" />
<glyph unicode="Y" horiz-adv-x="407" d="M110 715l93 -288h3l93 288h102l-145 -422v-220l1 -73h-106l1 73v220l-146 422h104z" />
<glyph unicode="Z" horiz-adv-x="401" d="M370 91v-91h-350v87l241 537h-219v91h332v-87l-241 -537h237z" />
<glyph unicode="[" horiz-adv-x="275" d="M251 -138h-196v853h196v-64h-98v-725h98v-64z" />
<glyph unicode="\" horiz-adv-x="345" d="M332 -82h-79l-240 797h81z" />
<glyph unicode="]" horiz-adv-x="275" d="M23 -138v64h99v725h-99v64h197v-853h-197z" />
<glyph unicode="^" d="M237 715h59l233 -430h-104l-123 244l-31 69h-9l-30 -69l-123 -244h-104z" />
<glyph unicode="_" horiz-adv-x="446" d="M-2 -101v81h450v-81h-450z" />
<glyph unicode="`" horiz-adv-x="342" d="M236 594h-70l-120 121h116z" />
<glyph unicode="a" horiz-adv-x="388" d="M37 382q11 158 161 158q145 0 145 -156v-311q0 -35 6 -73h-92q-3 19 -6 61h-4q-67 -67 -126 -67q-46 0 -72.5 31.5t-26.5 94.5q0 60 29 103t100 81q33 18 98 45v43q0 70 -55 70q-58 0 -62 -80h-95zM165 80q40 0 84 51v156q-129 -55 -129 -149q0 -58 45 -58z" />
<glyph unicode="b" horiz-adv-x="394" d="M49 715h96l-1 -73v-155q58 51 109 51q30 0 50.5 -13.5t30.5 -31t15.5 -49.5t6 -52t0.5 -56v-152q0 -30 -0.5 -46t-3 -42.5t-8.5 -41.5t-16 -31t-27.5 -23.5t-40.5 -7.5q-54 0 -117 57h-4v-49h-90l1 73v569zM207 458q-29 0 -63 -26v-326q36 -34 70 -34q17 0 27.5 7.5 t14.5 24t5 28.5t1 34v187q0 21 -1 33.5t-5.5 32t-17 29.5t-31.5 10z" />
<glyph unicode="c" horiz-adv-x="369" d="M250 191h91v-2q0 -122 -50 -167q-35 -32 -103 -32q-67 0 -102 32q-29 27 -39.5 72t-10.5 119v104q0 74 10.5 119t39.5 71q36 33 103 33t102 -32q47 -42 47 -157v-2h-90v2q0 26 -1 40t-6 32.5t-18.5 27t-34.5 8.5q-17 0 -28.5 -7t-17 -16t-8.5 -28.5t-3.5 -32.5t-0.5 -41 v-138q0 -27 0.5 -40t3.5 -33t8.5 -29t17 -16t28.5 -7q22 0 35.5 10t19 30.5t6.5 35.5t1 42v2z" />
<glyph unicode="d" horiz-adv-x="395" d="M249 715h96l-1 -73v-569l1 -73h-90v49h-4q-63 -57 -117 -57q-23 0 -40.5 7.5t-27.5 23.5t-16 31t-8.5 41.5t-3 42.5t-0.5 46v152q0 36 0.5 56t6 52t15.5 49.5t30.5 31t50.5 13.5q51 0 109 -51v155zM187 458q-19 0 -31.5 -10t-17 -29.5t-5.5 -32t-1 -33.5v-187 q0 -22 1 -34t5 -28.5t14.5 -24t27.5 -7.5q34 0 70 34v326q-34 26 -63 26z" />
<glyph unicode="e" horiz-adv-x="375" d="M342 250h-212v-54q0 -24 0.5 -35.5t2 -29.5t5 -26t9.5 -17.5t16 -13t24 -3.5q23 0 37 9.5t19.5 27.5t6.5 30t1 31v2h91v-2q0 -102 -51 -147q-36 -32 -103 -32t-102 32q-29 26 -39.5 71.5t-10.5 119.5v104q0 74 10.5 119t39.5 71q35 33 104 33q65 0 100 -32 q52 -47 52 -191v-67zM130 340v-21h118v21q0 26 -0.5 38.5t-3.5 31t-9 27t-18 15.5t-29 7q-21 0 -33.5 -8t-17.5 -27.5t-6 -35t-1 -48.5z" />
<glyph unicode="f" horiz-adv-x="264" d="M11 450v80h66v60q0 64 32 96.5t92 32.5q26 0 61 -5v-81q-18 3 -42 3q-49 0 -49 -57v-49h91v-80h-91v-377l1 -73h-96l1 73v377h-66z" />
<glyph unicode="g" horiz-adv-x="411" d="M192 136q-23 0 -32 2q-28 -19 -28 -37q0 -22 47 -25l81 -6q65 -5 101.5 -32t36.5 -77q0 -63 -57.5 -98t-151.5 -35q-72 0 -120 21t-48 65q0 60 91 88v4q-63 19 -63 62q0 50 55 88v3q-63 40 -63 151v56q0 96 50 141q36 33 96 33q77 0 115 -51h4q16 31 41.5 42.5t46.5 4.5 v-97q-45 7 -64 -10q8 -29 8 -67v-52q0 -98 -47 -141q-36 -33 -99 -33zM131 371v-66q0 -22 1 -33.5t6 -27t18 -22.5t34 -7t33.5 7t17.5 22.5t6 27t1 33.5v66q0 22 -1 33.5t-6 27t-17.5 22.5t-33.5 7t-34 -7t-18 -22.5t-6 -27t-1 -33.5zM312 -54q0 36 -62 41l-78 6 q-60 -25 -60 -55q0 -41 97 -41q103 0 103 49z" />
<glyph unicode="h" horiz-adv-x="399" d="M50 642l-1 73h96l-1 -73v-170h1q65 66 122 66q85 0 85 -110v-355l1 -73h-96l1 73v316q0 18 -0.5 27t-4 19.5t-11 15t-20.5 4.5q-34 0 -78 -40v-342l1 -73h-96l1 73v569z" />
<glyph unicode="i" horiz-adv-x="194" d="M49 530h96l-1 -73v-384l1 -73h-96l1 73v384zM50 616v99h94v-99h-94z" />
<glyph unicode="j" horiz-adv-x="194" d="M50 616v99h94v-99h-94zM-33 -158v83q18 -2 30 -2q28 0 40.5 15t12.5 49v470l-1 73h96l-1 -73v-485q0 -67 -33.5 -101.5t-93.5 -34.5q-31 0 -50 6z" />
<glyph unicode="k" horiz-adv-x="379" d="M262 530h102l-110 -194l118 -336h-100l-85 247l-43 -75v-99l1 -73h-96l1 73v569l-1 73h96l-1 -73v-248q0 -43 -2 -76h4l31 61z" />
<glyph unicode="l" horiz-adv-x="194" d="M49 715h96l-1 -73v-569l1 -73h-96l1 73v569z" />
<glyph unicode="m" horiz-adv-x="607" d="M144 415v-342l1 -73h-96l1 73v384l-1 73h90v-60h1q68 68 128 68q64 0 80 -68h1q70 68 127 68q24 0 41 -9.5t25 -21.5t12.5 -32.5t5 -32t0.5 -30.5v-339l1 -73h-96l1 73v316q0 18 -0.5 26.5t-4 19.5t-11.5 15.5t-21 4.5q-35 0 -77 -40v-342l1 -73h-96l1 73v318 q0 23 -1 33.5t-9.5 20.5t-25.5 10q-34 0 -78 -40z" />
<glyph unicode="n" horiz-adv-x="399" d="M258 73v316q0 18 -0.5 26.5t-4 19.5t-11.5 15.5t-21 4.5q-33 0 -77 -40v-342l1 -73h-96l1 73v384l-1 73h90v-60h1q70 68 128 68q84 0 84 -110v-355l1 -73h-96z" />
<glyph unicode="o" horiz-adv-x="378" d="M189 -10q-67 0 -103 33q-29 26 -39.5 70.5t-10.5 119.5v104q0 74 10.5 118.5t39.5 71.5q36 33 103 33t102 -33q29 -27 40 -72t11 -118v-104q0 -142 -51 -190q-35 -33 -102 -33zM189 71q17 0 28.5 6.5t17.5 15t9 28t3.5 33t0.5 42.5v138q0 29 -0.5 42.5t-3.5 33t-9 28 t-17.5 15t-28.5 6.5t-28.5 -6.5t-17.5 -15t-9 -28t-3.5 -33t-0.5 -42.5v-138q0 -29 0.5 -42.5t3.5 -33t9 -28t17.5 -15t28.5 -6.5z" />
<glyph unicode="p" horiz-adv-x="394" d="M50 457l-1 73h90v-47h4q62 55 115 55q24 0 41.5 -7.5t27.5 -24t16.5 -31.5t9 -42t3 -42.5t0.5 -45.5v-153q0 -29 -0.5 -45t-3 -43.5t-9 -43.5t-17.5 -34t-29 -26t-43 -8q-53 0 -110 54v-137l1 -73h-96l1 73v548zM212 458q-34 0 -68 -31v-326q34 -29 65 -29q19 0 30.5 9 t16 27t5.5 31t1 36v187q0 22 -1 34.5t-5 29t-15 24.5t-29 8z" />
<glyph unicode="q" horiz-adv-x="394" d="M345 530l-1 -73v-548l1 -73h-96l1 73v137q-57 -54 -110 -54q-25 0 -43 8t-29 26t-17.5 34t-9 43.5t-3 43.5t-0.5 45v153q0 30 0.5 45.5t3 42.5t9 42t16.5 31.5t27.5 24t41.5 7.5q53 0 115 -55h4v47h90zM182 458q-18 0 -29 -8t-15 -24.5t-5 -29t-1 -34.5v-187q0 -23 1 -36 t5.5 -31t16 -27t30.5 -9q31 0 65 29v326q-34 31 -68 31z" />
<glyph unicode="r" horiz-adv-x="279" d="M257 538q7 0 13 -2v-102q-9 2 -28 2q-45 0 -71.5 -22.5t-26.5 -66.5v-274l1 -73h-96l1 73v383l-1 74h88v-76h5q22 38 53.5 61t61.5 23z" />
<glyph unicode="s" horiz-adv-x="356" d="M17 148l88 18q6 -48 27 -72t53 -24q26 0 40.5 15t14.5 40q0 48 -71 96l-55 39q-83 56 -83 146q0 55 40.5 94.5t107.5 39.5q129 0 150 -135l-86 -18q-11 73 -65 73q-24 0 -40 -14t-16 -38q0 -40 60 -82l55 -39q96 -63 96 -156q0 -64 -40 -102.5t-111 -38.5 q-63 0 -108.5 40t-56.5 118z" />
<glyph unicode="t" horiz-adv-x="274" d="M10 450v80h68l4 149h89v-149h90v-80h-90v-310q0 -58 49 -58q19 0 41 2v-84q-35 -5 -60 -5q-63 0 -93.5 31t-30.5 98v326h-67z" />
<glyph unicode="u" horiz-adv-x="399" d="M141 457v-316q0 -18 0.5 -26.5t4 -19.5t11.5 -15.5t21 -4.5q33 0 77 40v342l-1 73h96l-1 -73v-384l1 -73h-90v60h-1q-70 -68 -128 -68q-84 0 -84 110v355l-1 73h96z" />
<glyph unicode="v" horiz-adv-x="350" d="M100 530l60 -281q9 -43 14 -80h3q2 11 13 80l60 281h93l-123 -530h-91l-122 530h93z" />
<glyph unicode="w" horiz-adv-x="529" d="M116 0l-106 530h89l49 -277q6 -30 12 -74h3q8 54 11 72l56 279h72l55 -279q8 -44 12 -72h3q9 65 11 74l49 277h88l-107 -530h-89l-47 254q-2 13 -6.5 41t-4.5 30h-3q0 -2 -4.5 -30t-6.5 -41l-47 -254h-89z" />
<glyph unicode="x" horiz-adv-x="360" d="M180 188h-3l-71 -188h-98l117 276l-107 254h97l63 -165h3l65 165h96l-108 -254l117 -276h-101z" />
<glyph unicode="y" horiz-adv-x="346" d="M122 26l-114 504h93l59 -288q1 -3 6 -32.5t7 -41.5h3q3 22 13 73l57 289h92l-131 -582q-28 -112 -135 -112q-22 0 -59 5v84q24 -2 40 -2q42 0 59.5 29t9.5 74z" />
<glyph unicode="z" horiz-adv-x="336" d="M309 83v-83h-286v74l183 373h-173v83h276v-74l-184 -373h184z" />
<glyph unicode="{" horiz-adv-x="307" d="M106 438v140q0 74 45 105.5t112 31.5h21v-64h-3q-43 0 -59 -16.5t-16 -55.5v-149q0 -53 -27 -86t-69 -36v-10q42 -4 69 -37t27 -86v-176q0 -43 15.5 -57.5t59.5 -14.5h3v-65h-21q-68 0 -112.5 31.5t-44.5 106.5v167q0 98 -63 98h-29v75h29q63 0 63 98z" />
<glyph unicode="|" horiz-adv-x="377" d="M137 840h103v-1000h-103v1000z" />
<glyph unicode="}" horiz-adv-x="307" d="M201 578v-140q0 -98 63 -98h29v-75h-29q-63 0 -63 -98v-167q0 -75 -44.5 -106.5t-112.5 -31.5h-21v65h3q44 0 59.5 14.5t15.5 57.5v176q0 53 27 86t69 37v10q-42 3 -69 36t-27 86v149q0 39 -16 55.5t-59 16.5h-3v64h21q67 0 112 -31.5t45 -105.5z" />
<glyph unicode="~" d="M42 211q0 91 38 138t101 47q31 0 53 -12t49 -39l23 -23q27 -29 51 -29q25 0 37.5 26t12.5 69h87q0 -91 -38 -139t-100 -48q-54 0 -103 51l-23 24q-27 29 -50 29q-26 0 -39.5 -26.5t-13.5 -67.5h-85z" />
<glyph unicode="&#xa1;" horiz-adv-x="196" d="M50 414v116h96v-116h-96zM44 -158l21 478h66l21 -478h-108z" />
<glyph unicode="&#xa2;" horiz-adv-x="382" d="M144 -104h-73l27 119q-35 29 -46.5 75t-11.5 123v104q0 74 10.5 119t39.5 71q36 33 103 33q13 0 33 -2l18 73h73l-26 -100q51 -41 51 -160v-2h-90v2q0 26 -1 40t-6 32.5t-18.5 27t-34.5 8.5q-17 0 -28.5 -7t-17 -16t-8.5 -28.5t-3.5 -32.5t-0.5 -41v-138q0 -27 0.5 -40 t3.5 -33t8.5 -29t17 -16t28.5 -7q22 0 35.5 10t19 30.5t6.5 35.5t1 42v2h91v-2q0 -122 -50 -167q-35 -32 -103 -32q-18 0 -27 1z" />
<glyph unicode="&#xa3;" horiz-adv-x="472" d="M34 329v74h77q-31 93 -31 152q0 86 46.5 129t117.5 43q81 0 125 -48t48 -117l-93 -13q-10 93 -77 93q-68 0 -68 -86q0 -51 32 -153h151v-74h-127q15 -50 15 -89q0 -64 -22 -118q19 -42 58 -42q69 0 69 116h95q0 -91 -46 -148.5t-117 -57.5t-108 60q-54 -53 -145 -50v95 q119 0 119 125q0 42 -18 109h-101z" />
<glyph unicode="&#xa4;" horiz-adv-x="443" d="M222 78q-33 0 -63 8l-28 -86h-90l47 133q-40 52 -40 202v45q0 162 48 211l-46 124h89l29 -84q24 6 54 6q29 0 53 -6l29 84h89l-46 -124q49 -50 49 -211v-45q0 -151 -41 -203l47 -132h-90l-28 86q-29 -8 -62 -8zM150 309q0 -31 0.5 -45.5t4 -36.5t11 -32t21.5 -17.5 t35 -7.5t35 7.5t21 17.5t11 31t4.5 36.5t0.5 46.5v97q0 31 -0.5 47t-4.5 37t-11 30.5t-21 17t-35 7.5t-35 -7.5t-21.5 -17.5t-11 -31.5t-4 -36.5t-0.5 -46v-97z" />
<glyph unicode="&#xa5;" horiz-adv-x="480" d="M34 399v65h96l-87 251h105l92 -287h4l92 287h102l-87 -251h95v-65h-118l-21 -61h139v-65h-153v-200l1 -73h-106l1 73v200h-155v65h140l-21 61h-119z" />
<glyph unicode="&#xa6;" horiz-adv-x="377" d="M137 766h103v-351h-103v351zM137 266h103v-351h-103v351z" />
<glyph unicode="&#xa7;" horiz-adv-x="497" d="M478 231q0 -110 -112 -139q46 -52 46 -115q0 -66 -45 -107.5t-117 -41.5q-73 0 -116 42t-51 118l90 11q13 -86 79 -86q29 0 47.5 16.5t18.5 43.5q0 43 -66 89l-117 80q-116 79 -116 182q0 109 111 139q-45 53 -45 115q0 67 45 108t117 41q73 0 116 -42t51 -118l-90 -11 q-13 86 -79 86q-29 0 -47.5 -16.5t-18.5 -43.5q0 -43 66 -89l117 -80q116 -80 116 -182zM293 343l-114 77q-31 -8 -48.5 -29.5t-17.5 -53.5q0 -64 90 -125l113 -77q31 7 49 29t18 54q0 64 -90 125z" />
<glyph unicode="&#xa8;" horiz-adv-x="342" d="M201 616v99h92v-99h-92zM48 616v99h92v-99h-92z" />
<glyph unicode="&#xa9;" horiz-adv-x="836" d="M18 357q0 186 112.5 314t287.5 128q174 0 286.5 -128t112.5 -314t-112.5 -314t-286.5 -128q-175 0 -287.5 128t-112.5 314zM94 357q0 -158 91.5 -266.5t232.5 -108.5t232 108.5t91 266.5t-91 266.5t-232 108.5t-232.5 -108.5t-91.5 -266.5zM418 64q-69 0 -109 34 q-51 43 -51 175v170q0 132 52 175q40 34 106 34t107 -34q26 -21 39 -57t13 -105v-3h-86v3q0 24 -0.5 36t-4 31t-11 28t-22 16.5t-35.5 7.5q-25 0 -40.5 -8.5t-21.5 -28t-7.5 -34.5t-1.5 -45v-202q0 -24 0.5 -36.5t4 -30.5t11 -26.5t21.5 -15.5t35 -7t36 7.5t22.5 17t11 29.5 t4 33.5t0.5 41.5v5h86v-3q0 -72 -12.5 -112t-40.5 -62q-42 -34 -106 -34z" />
<glyph unicode="&#xaa;" horiz-adv-x="328" d="M27 543q10 127 141 127q125 0 125 -127v-232q0 -14 6 -59h-89q-2 16 -4 44h-4q-56 -49 -100 -49q-40 0 -63.5 26t-23.5 72q0 92 109 145q38 19 81 34v28q0 48 -41 48q-44 0 -48 -57h-89zM142 322q28 0 63 35v107q-99 -35 -99 -100q0 -42 36 -42z" />
<glyph unicode="&#xab;" horiz-adv-x="449" d="M221 131h-74l-125 163v19l123 163h76l-100 -173zM411 131h-75l-125 163v19l123 163h77l-100 -173z" />
<glyph unicode="&#xac;" d="M23 461h475v-323h-94v235h-381v88z" />
<glyph unicode="&#xad;" horiz-adv-x="279" d="M44 251v96h191v-96h-191z" />
<glyph unicode="&#xae;" horiz-adv-x="389" d="M27 565q0 72 45.5 120t122.5 48t122.5 -48.5t45.5 -119.5q0 -72 -45.5 -120t-122.5 -48t-122.5 48t-45.5 120zM68 565q0 -58 34.5 -96.5t92.5 -38.5t92 38.5t34 96.5q0 57 -34 95.5t-92 38.5t-92.5 -38.5t-34.5 -95.5zM196 542h-22v-76h-47v202h67q76 0 76 -64v-1 q0 -37 -30 -52l33 -85h-48zM174 630v-50h18q32 0 32 24v1q0 25 -33 25h-17z" />
<glyph unicode="&#xaf;" horiz-adv-x="342" d="M277 624h-211v72h211v-72z" />
<glyph unicode="&#xb0;" horiz-adv-x="344" d="M171 359q-60 0 -95 29q-42 34 -42 136v33q0 102 42 136q35 29 95 29q61 0 96 -29q42 -34 42 -136v-33q0 -102 -42 -136q-35 -29 -96 -29zM171 431q17 0 27 6.5t14 20t5 23t1 26.5v67q0 17 -1 26.5t-5 23t-14 20t-27 6.5q-16 0 -26.5 -6.5t-14 -20t-4.5 -23t-1 -26.5v-67 q0 -17 1 -26.5t4.5 -23t14 -20t26.5 -6.5z" />
<glyph unicode="&#xb1;" d="M38 317v87h183v172h93v-172h182v-87h-182v-174h-93v174h-183zM38 0v87h458v-87h-458z" />
<glyph unicode="&#xb2;" horiz-adv-x="312" d="M290 602v-1q0 -79 -103 -176l-62 -63h161v-76h-267v71l86 91q46 48 71 85t25 70v1q0 46 -42 46q-48 0 -48 -67v-2h-87v1q0 70 36.5 105t101.5 35q64 0 96 -32.5t32 -87.5z" />
<glyph unicode="&#xb3;" horiz-adv-x="314" d="M19 417h87v-1q0 -21 1.5 -32t12 -23t31.5 -12q49 0 49 59v10q0 52 -68 52h-23v76h23q62 0 62 52v8q0 46 -42 46q-44 0 -44 -61v-1h-86v1q0 68 43 103q35 28 90 28q52 0 87 -26q39 -30 39 -85v-9q0 -66 -66 -89v-2q74 -21 74 -97v-10q0 -66 -40 -98q-34 -27 -96 -27 q-63 0 -95 26q-39 31 -39 111v1z" />
<glyph unicode="&#xb4;" horiz-adv-x="342" d="M175 594h-70l75 121h115z" />
<glyph unicode="&#xb5;" horiz-adv-x="411" d="M162 -1q-20 0 -27 12l-2 -1q10 -20 10 -55v-46l1 -73h-91l1 73v548l-1 73h96l-1 -73v-316q0 -18 0.5 -26.5t4 -19.5t11.5 -15.5t21 -4.5q33 0 77 40v342l-1 73h96l-1 -73v-384l1 -73h-90v60h-1q-63 -61 -104 -61z" />
<glyph unicode="&#xb6;" horiz-adv-x="619" d="M219 715h344l-1 -73v-733l1 -73h-105l1 73v715h-92v-715l1 -73h-104l1 73v388h-46q-112 0 -156 55.5t-44 152.5v2q0 97 44.5 152.5t155.5 55.5zM232 387h33v237h-33q-61 0 -84 -30.5t-23 -86.5v-2q0 -56 23.5 -87t83.5 -31z" />
<glyph unicode="&#xb7;" horiz-adv-x="214" d="M39 367h136v-136h-136v136z" />
<glyph unicode="&#xb8;" horiz-adv-x="342" d="M153 7h61l-11 -50q73 -6 73 -60q0 -67 -121 -67q-44 0 -76 12l5 47q34 -12 68 -12q45 0 45 23t-39 23h-22z" />
<glyph unicode="&#xb9;" horiz-adv-x="220" d="M78 602h-65v49q82 27 100 66h57v-431h-92v316z" />
<glyph unicode="&#xba;" horiz-adv-x="318" d="M159 244q-61 0 -92 27q-24 21 -33 55t-9 92v78q0 58 9 92t33 55q32 27 92 27q61 0 92 -27q42 -37 42 -147v-78q0 -110 -42 -147q-31 -27 -92 -27zM159 318q16 0 26 6t14 20.5t5 25t1 30.5v115q0 20 -1 30.5t-5 24.5t-14 20t-26 6t-26 -6t-14 -20t-5 -24.5t-1 -30.5v-115 q0 -20 1 -30.5t5 -25t14 -20.5t26 -6z" />
<glyph unicode="&#xbb;" horiz-adv-x="449" d="M302 131h-75l100 172l-100 173h77l123 -163v-19zM112 131h-74l100 172l-100 173h76l124 -163v-19z" />
<glyph unicode="&#xbc;" horiz-adv-x="663" d="M78 602h-65v49q82 27 100 66h57v-431h-92v316zM143 0l214 715h81l-216 -715h-79zM507 0v88h-163v79l153 262h97v-268h53v-73h-53v-88h-87zM419 161h88v79q0 47 3 78h-3l-6 -12t-10 -18.5t-9 -16.5z" />
<glyph unicode="&#xbd;" horiz-adv-x="675" d="M78 602h-65v49q82 27 100 66h57v-431h-92v316zM143 0l214 715h81l-216 -715h-79zM653 316v-1q0 -79 -103 -176l-62 -63h161v-76h-267v71l86 91q46 48 71 85t25 70v1q0 46 -42 46q-48 0 -48 -67v-2h-87v1q0 70 36.5 105t101.5 35q64 0 96 -32.5t32 -87.5z" />
<glyph unicode="&#xbe;" horiz-adv-x="757" d="M19 417h87v-1q0 -21 1.5 -32t12 -23t31.5 -12q49 0 49 59v10q0 52 -68 52h-23v76h23q62 0 62 52v8q0 46 -42 46q-44 0 -44 -61v-1h-86v1q0 68 43 103q35 28 90 28q52 0 87 -26q39 -30 39 -85v-9q0 -66 -66 -89v-2q74 -21 74 -97v-10q0 -66 -40 -98q-34 -27 -96 -27 q-63 0 -95 26q-39 31 -39 111v1zM237 0l214 715h81l-216 -715h-79zM601 0v88h-163v79l153 262h97v-268h53v-73h-53v-88h-87zM513 161h88v79q0 47 3 78h-3l-6 -12t-10 -18.5t-9 -16.5z" />
<glyph unicode="&#xbf;" horiz-adv-x="352" d="M235 530v-116h-96v116h96zM145 319h84v-37q0 -42 -11.5 -83.5t-23 -63.5t-31.5 -57q-3 -5 -11 -19.5t-11.5 -20t-9 -17.5t-8 -19t-4.5 -17t-2 -19q0 -51 56 -51q49 0 81 74l82 -32q-51 -129 -169 -129q-68 0 -107 37t-39 100q0 66 54 144q23 33 34.5 51.5t23.5 53.5 t12 72v33z" />
<glyph unicode="&#xc0;" horiz-adv-x="422" d="M143 158l-26 -158h-106l130 715h140l130 -715h-104l-27 158h-137zM196 482l-38 -231h107l-39 231q-3 19 -7.5 58.5t-4.5 41.5h-6q-4 -50 -12 -100zM277 756h-70l-120 121h116z" />
<glyph unicode="&#xc1;" horiz-adv-x="422" d="M143 158l-26 -158h-106l130 715h140l130 -715h-104l-27 158h-137zM196 482l-38 -231h107l-39 231q-3 19 -7.5 58.5t-4.5 41.5h-6q-4 -50 -12 -100zM216 756h-70l75 121h115z" />
<glyph unicode="&#xc2;" horiz-adv-x="422" d="M143 158l-26 -158h-106l130 715h140l130 -715h-104l-27 158h-137zM196 482l-38 -231h107l-39 231q-3 19 -7.5 58.5t-4.5 41.5h-6q-4 -50 -12 -100zM335 756h-58l-65 62l-65 -62h-59l79 121h88z" />
<glyph unicode="&#xc3;" horiz-adv-x="422" d="M143 158l-26 -158h-106l130 715h140l130 -715h-104l-27 158h-137zM196 482l-38 -231h107l-39 231q-3 19 -7.5 58.5t-4.5 41.5h-6q-4 -50 -12 -100zM71 758q0 64 22.5 93.5t58.5 29.5q32 0 68 -28q3 -2 11.5 -9t13 -10t11 -6t12.5 -3q27 0 27 52h54q0 -64 -23 -94t-58 -30 q-32 0 -68 28q-3 2 -9.5 7.5t-10.5 8t-9 6t-10 5t-10 1.5q-26 0 -26 -51h-54z" />
<glyph unicode="&#xc4;" horiz-adv-x="422" d="M143 158l-26 -158h-106l130 715h140l130 -715h-104l-27 158h-137zM196 482l-38 -231h107l-39 231q-3 19 -7.5 58.5t-4.5 41.5h-6q-4 -50 -12 -100zM242 761v99h92v-99h-92zM89 761v99h92v-99h-92z" />
<glyph unicode="&#xc5;" horiz-adv-x="422" d="M143 158l-26 -158h-106l130 715h140l130 -715h-104l-27 158h-137zM196 482l-38 -231h107l-39 231q-3 19 -7.5 58.5t-4.5 41.5h-6q-4 -50 -12 -100zM314 834q0 -37 -27 -62.5t-74 -25.5q-49 0 -76 25.5t-27 62.5q0 38 27 65.5t76 27.5q47 0 74 -27.5t27 -65.5zM260 834 q0 19 -13 33t-34 14q-23 0 -36.5 -14t-13.5 -33q0 -17 13.5 -30t36.5 -13q21 0 34 13t13 30z" />
<glyph unicode="&#xc6;" horiz-adv-x="638" d="M155 158l-51 -158h-104l243 715h362v-91h-200v-205h161v-92h-161v-236h204v-91h-308l1 73v85h-147zM298 624q-11 -60 -39 -147l-74 -226h117v373h-4z" />
<glyph unicode="&#xc7;" horiz-adv-x="439" d="M347 26q-34 -29 -87 -36l-7 -33q73 -6 73 -60q0 -67 -121 -67q-44 0 -76 12l5 47q34 -12 68 -12q45 0 45 23t-39 23h-22l13 67q-59 6 -92 36q-29 25 -43 74t-14 146v224q0 96 14 145t43 74q43 38 121 38q74 0 118 -38q31 -26 44.5 -73.5t13.5 -131.5v-2h-104v2 q0 26 -0.5 38.5t-2.5 33.5t-6.5 31.5t-12 22t-20.5 16.5t-31 5q-21 0 -35.5 -8.5t-22 -19.5t-11 -33t-4 -36t-0.5 -42v-268q0 -25 0.5 -37t2.5 -32t6.5 -30t12 -21t20.5 -15.5t31 -4.5t31.5 4.5t21.5 17t12.5 23.5t6.5 34t2.5 38t0.5 46v2h104v-2q0 -99 -14.5 -147 t-44.5 -74z" />
<glyph unicode="&#xc8;" horiz-adv-x="393" d="M321 327h-161v-236h204v-91h-308l1 73v569l-1 73h304v-91h-200v-205h161v-92zM274 756h-70l-120 121h116z" />
<glyph unicode="&#xc9;" horiz-adv-x="393" d="M321 327h-161v-236h204v-91h-308l1 73v569l-1 73h304v-91h-200v-205h161v-92zM213 756h-70l75 121h115z" />
<glyph unicode="&#xca;" horiz-adv-x="393" d="M321 327h-161v-236h204v-91h-308l1 73v569l-1 73h304v-91h-200v-205h161v-92zM332 756h-58l-65 62l-65 -62h-59l79 121h88z" />
<glyph unicode="&#xcb;" horiz-adv-x="393" d="M321 327h-161v-236h204v-91h-308l1 73v569l-1 73h304v-91h-200v-205h161v-92zM239 761v99h92v-99h-92zM86 761v99h92v-99h-92z" />
<glyph unicode="&#xcc;" horiz-adv-x="217" d="M56 715h105l-1 -73v-569l1 -73h-105l1 73v569zM173 756h-70l-120 121h116z" />
<glyph unicode="&#xcd;" horiz-adv-x="217" d="M56 715h105l-1 -73v-569l1 -73h-105l1 73v569zM112 756h-70l75 121h115z" />
<glyph unicode="&#xce;" horiz-adv-x="217" d="M56 715h105l-1 -73v-569l1 -73h-105l1 73v569zM231 756h-58l-65 62l-65 -62h-59l79 121h88z" />
<glyph unicode="&#xcf;" horiz-adv-x="217" d="M56 715h105l-1 -73v-569l1 -73h-105l1 73v569zM138 761v99h92v-99h-92zM-15 761v99h92v-99h-92z" />
<glyph unicode="&#xd0;" horiz-adv-x="469" d="M233 715q76 0 124 -41q33 -28 47.5 -73.5t14.5 -129.5v-227q0 -84 -14.5 -129.5t-47.5 -73.5q-48 -41 -124 -41h-168l1 73v254h-57v92h57v223l-1 73h168zM217 624h-48v-205h73v-92h-73v-236h48q41 0 63 19q35 29 35 106v283q0 77 -35 106q-22 19 -63 19z" />
<glyph unicode="&#xd1;" horiz-adv-x="500" d="M56 715h107l151 -377q13 -34 31 -89h4q-5 65 -5 94v299l-1 73h101l-1 -73v-569l1 -73h-95l-162 411q-17 41 -32 89h-4q5 -65 5 -94v-333l1 -73h-101l1 73v569zM110 758q0 64 22.5 93.5t58.5 29.5q32 0 68 -28q3 -2 11.5 -9t13 -10t11 -6t12.5 -3q27 0 27 52h54 q0 -64 -23 -94t-58 -30q-32 0 -68 28q-3 2 -9.5 7.5t-10.5 8t-9 6t-10 5t-10 1.5q-26 0 -26 -51h-54z" />
<glyph unicode="&#xd2;" horiz-adv-x="454" d="M227 -12q-75 0 -119 38q-30 26 -44 73.5t-14 145.5v225q0 98 14 145.5t44 73.5q46 38 119 38q75 0 119 -38q30 -26 44.5 -73.5t14.5 -145.5v-225q0 -98 -14.5 -145.5t-44.5 -73.5q-43 -38 -119 -38zM227 84q21 0 36 8.5t22 19t11 32.5t4.5 36t0.5 43v269q0 29 -0.5 43 t-4.5 36t-11 32.5t-22 19t-36 8.5t-35.5 -8.5t-22 -19t-11 -32.5t-4 -36t-0.5 -43v-269q0 -29 0.5 -43t4 -36t11 -32.5t22 -19t35.5 -8.5zM291 756h-70l-120 121h116z" />
<glyph unicode="&#xd3;" horiz-adv-x="454" d="M227 -12q-75 0 -119 38q-30 26 -44 73.5t-14 145.5v225q0 98 14 145.5t44 73.5q46 38 119 38q75 0 119 -38q30 -26 44.5 -73.5t14.5 -145.5v-225q0 -98 -14.5 -145.5t-44.5 -73.5q-43 -38 -119 -38zM227 84q21 0 36 8.5t22 19t11 32.5t4.5 36t0.5 43v269q0 29 -0.5 43 t-4.5 36t-11 32.5t-22 19t-36 8.5t-35.5 -8.5t-22 -19t-11 -32.5t-4 -36t-0.5 -43v-269q0 -29 0.5 -43t4 -36t11 -32.5t22 -19t35.5 -8.5zM230 756h-70l75 121h115z" />
<glyph unicode="&#xd4;" horiz-adv-x="454" d="M227 -12q-75 0 -119 38q-30 26 -44 73.5t-14 145.5v225q0 98 14 145.5t44 73.5q46 38 119 38q75 0 119 -38q30 -26 44.5 -73.5t14.5 -145.5v-225q0 -98 -14.5 -145.5t-44.5 -73.5q-43 -38 -119 -38zM227 84q21 0 36 8.5t22 19t11 32.5t4.5 36t0.5 43v269q0 29 -0.5 43 t-4.5 36t-11 32.5t-22 19t-36 8.5t-35.5 -8.5t-22 -19t-11 -32.5t-4 -36t-0.5 -43v-269q0 -29 0.5 -43t4 -36t11 -32.5t22 -19t35.5 -8.5zM349 756h-58l-65 62l-65 -62h-59l79 121h88z" />
<glyph unicode="&#xd5;" horiz-adv-x="454" d="M227 -12q-75 0 -119 38q-30 26 -44 73.5t-14 145.5v225q0 98 14 145.5t44 73.5q46 38 119 38q75 0 119 -38q30 -26 44.5 -73.5t14.5 -145.5v-225q0 -98 -14.5 -145.5t-44.5 -73.5q-43 -38 -119 -38zM227 84q21 0 36 8.5t22 19t11 32.5t4.5 36t0.5 43v269q0 29 -0.5 43 t-4.5 36t-11 32.5t-22 19t-36 8.5t-35.5 -8.5t-22 -19t-11 -32.5t-4 -36t-0.5 -43v-269q0 -29 0.5 -43t4 -36t11 -32.5t22 -19t35.5 -8.5zM85 758q0 64 22.5 93.5t58.5 29.5q32 0 68 -28q3 -2 11.5 -9t13 -10t11 -6t12.5 -3q27 0 27 52h54q0 -64 -23 -94t-58 -30 q-32 0 -68 28q-3 2 -9.5 7.5t-10.5 8t-9 6t-10 5t-10 1.5q-26 0 -26 -51h-54z" />
<glyph unicode="&#xd6;" horiz-adv-x="454" d="M227 -12q-75 0 -119 38q-30 26 -44 73.5t-14 145.5v225q0 98 14 145.5t44 73.5q46 38 119 38q75 0 119 -38q30 -26 44.5 -73.5t14.5 -145.5v-225q0 -98 -14.5 -145.5t-44.5 -73.5q-43 -38 -119 -38zM227 84q21 0 36 8.5t22 19t11 32.5t4.5 36t0.5 43v269q0 29 -0.5 43 t-4.5 36t-11 32.5t-22 19t-36 8.5t-35.5 -8.5t-22 -19t-11 -32.5t-4 -36t-0.5 -43v-269q0 -29 0.5 -43t4 -36t11 -32.5t22 -19t35.5 -8.5zM256 761v99h92v-99h-92zM103 761v99h92v-99h-92z" />
<glyph unicode="&#xd7;" d="M86 55l-63 63l182 180l-183 182l65 65l182 -182l180 181l63 -62l-180 -182l182 -182l-65 -64l-181 182z" />
<glyph unicode="&#xd8;" horiz-adv-x="454" d="M164 -75h-73l22 97q-63 38 -63 223v225q0 98 14 145.5t44 73.5q46 38 119 38q29 0 54 -6l11 48h74l-20 -81q30 -26 44.5 -73.5t14.5 -144.5v-225q0 -98 -14.5 -145.5t-44.5 -73.5q-43 -38 -119 -38q-27 0 -47 4zM153 495v-284l131 399q-18 26 -57 26q-21 0 -36 -8.5 t-22 -19t-11 -33t-4.5 -37t-0.5 -43.5zM227 79q27 0 43 10.5t22.5 34.5t8 42t1.5 54v265l-127 -386q17 -20 52 -20z" />
<glyph unicode="&#xd9;" horiz-adv-x="457" d="M301 715h105l-1 -73v-473q0 -86 -47 -133.5t-130 -47.5q-82 0 -128.5 47.5t-46.5 133.5v473l-1 73h105l-1 -73v-462q0 -96 72 -96q74 0 74 96v462zM294 756h-70l-120 121h116z" />
<glyph unicode="&#xda;" horiz-adv-x="457" d="M301 715h105l-1 -73v-473q0 -86 -47 -133.5t-130 -47.5q-82 0 -128.5 47.5t-46.5 133.5v473l-1 73h105l-1 -73v-462q0 -96 72 -96q74 0 74 96v462zM233 756h-70l75 121h115z" />
<glyph unicode="&#xdb;" horiz-adv-x="457" d="M301 715h105l-1 -73v-473q0 -86 -47 -133.5t-130 -47.5q-82 0 -128.5 47.5t-46.5 133.5v473l-1 73h105l-1 -73v-462q0 -96 72 -96q74 0 74 96v462zM352 756h-58l-65 62l-65 -62h-59l79 121h88z" />
<glyph unicode="&#xdc;" horiz-adv-x="457" d="M301 715h105l-1 -73v-473q0 -86 -47 -133.5t-130 -47.5q-82 0 -128.5 47.5t-46.5 133.5v473l-1 73h105l-1 -73v-462q0 -96 72 -96q74 0 74 96v462zM259 761v99h92v-99h-92zM106 761v99h92v-99h-92z" />
<glyph unicode="&#xdd;" horiz-adv-x="405" d="M110 715l93 -288h3l93 288h102l-145 -422v-220l1 -73h-106l1 73v220l-146 422h104zM209 756h-70l75 121h115z" />
<glyph unicode="&#xde;" horiz-adv-x="439" d="M160 224h39q60 0 83 31.5t23 87.5v42q0 55 -23 86t-83 31h-39v-278zM57 642l-1 73h105l-1 -73v-49h51q112 0 156 -55.5t44 -152.5v-42q0 -98 -44 -153.5t-156 -55.5h-51v-61l1 -73h-105l1 73v569z" />
<glyph unicode="&#xdf;" horiz-adv-x="445" d="M194 369v79h5q36 0 58 27t22 74q0 43 -19.5 66t-54.5 23q-61 0 -61 -70v-495l1 -73h-96l1 73v506q0 68 42.5 104t111.5 36q81 0 123.5 -46.5t42.5 -113.5q0 -53 -25 -89.5t-55 -42.5v-5q57 -21 92 -78.5t35 -151.5q0 -89 -35.5 -143t-114.5 -54q-42 0 -73 11v79 q24 -10 60 -10q40 0 54.5 29t14.5 84q0 93 -29.5 132.5t-85.5 46.5z" />
<glyph unicode="&#xe0;" horiz-adv-x="388" d="M37 382q11 158 161 158q145 0 145 -156v-311q0 -35 6 -73h-92q-3 19 -6 61h-4q-67 -67 -126 -67q-46 0 -72.5 31.5t-26.5 94.5q0 60 29 103t100 81q33 18 98 45v43q0 70 -55 70q-58 0 -62 -80h-95zM165 80q40 0 84 51v156q-129 -55 -129 -149q0 -58 45 -58zM262 594h-70 l-120 121h116z" />
<glyph unicode="&#xe1;" horiz-adv-x="388" d="M37 382q11 158 161 158q145 0 145 -156v-311q0 -35 6 -73h-92q-3 19 -6 61h-4q-67 -67 -126 -67q-46 0 -72.5 31.5t-26.5 94.5q0 60 29 103t100 81q33 18 98 45v43q0 70 -55 70q-58 0 -62 -80h-95zM165 80q40 0 84 51v156q-129 -55 -129 -149q0 -58 45 -58zM201 594h-70 l75 121h115z" />
<glyph unicode="&#xe2;" horiz-adv-x="388" d="M37 382q11 158 161 158q145 0 145 -156v-311q0 -35 6 -73h-92q-3 19 -6 61h-4q-67 -67 -126 -67q-46 0 -72.5 31.5t-26.5 94.5q0 60 29 103t100 81q33 18 98 45v43q0 70 -55 70q-58 0 -62 -80h-95zM165 80q40 0 84 51v156q-129 -55 -129 -149q0 -58 45 -58zM320 594h-58 l-65 60l-65 -60h-59l79 121h88z" />
<glyph unicode="&#xe3;" horiz-adv-x="388" d="M37 382q11 158 161 158q145 0 145 -156v-311q0 -35 6 -73h-92q-3 19 -6 61h-4q-67 -67 -126 -67q-46 0 -72.5 31.5t-26.5 94.5q0 60 29 103t100 81q33 18 98 45v43q0 70 -55 70q-58 0 -62 -80h-95zM165 80q40 0 84 51v156q-129 -55 -129 -149q0 -58 45 -58zM56 596 q0 64 22.5 93.5t58.5 29.5q32 0 68 -28q3 -2 11.5 -9t13 -10t11 -6t12.5 -3q27 0 27 52h54q0 -64 -23 -94t-58 -30q-32 0 -68 28q-3 2 -9.5 7.5t-10.5 8t-9 6t-10 5t-10 1.5q-26 0 -26 -51h-54z" />
<glyph unicode="&#xe4;" horiz-adv-x="388" d="M37 382q11 158 161 158q145 0 145 -156v-311q0 -35 6 -73h-92q-3 19 -6 61h-4q-67 -67 -126 -67q-46 0 -72.5 31.5t-26.5 94.5q0 60 29 103t100 81q33 18 98 45v43q0 70 -55 70q-58 0 -62 -80h-95zM165 80q40 0 84 51v156q-129 -55 -129 -149q0 -58 45 -58zM227 616v99 h92v-99h-92zM74 616v99h92v-99h-92z" />
<glyph unicode="&#xe5;" horiz-adv-x="388" d="M37 382q11 158 161 158q145 0 145 -156v-311q0 -35 6 -73h-92q-3 19 -6 61h-4q-67 -67 -126 -67q-46 0 -72.5 31.5t-26.5 94.5q0 60 29 103t100 81q33 18 98 45v43q0 70 -55 70q-58 0 -62 -80h-95zM165 80q40 0 84 51v156q-129 -55 -129 -149q0 -58 45 -58zM299 672 q0 -37 -27 -63t-74 -26q-49 0 -76 26t-27 63q0 38 27.5 65.5t75.5 27.5q47 0 74 -27.5t27 -65.5zM245 672q0 19 -12.5 32.5t-34.5 13.5q-23 0 -36.5 -13.5t-13.5 -32.5q0 -18 13.5 -30.5t36.5 -12.5q22 0 34.5 12.5t12.5 30.5z" />
<glyph unicode="&#xe6;" horiz-adv-x="588" d="M401 -10q-67 0 -102 32q-26 24 -37 58h-4q-59 -86 -137 -86q-46 0 -72.5 31.5t-26.5 94.5q0 58 28.5 101.5t99.5 82.5q30 16 99 45v43q0 70 -55 70q-58 0 -62 -80h-95q11 158 158 158q71 0 104 -41h2q28 41 103 41q64 0 99 -32q52 -47 52 -191v-67h-212v-54 q0 -29 0.5 -42.5t3.5 -33t8.5 -28t17 -15t28.5 -6.5q22 0 36 9t19.5 27t6.5 30t1 32v2h91v-2q0 -102 -51 -147q-36 -32 -103 -32zM343 340v-21h118v21q0 26 -0.5 38.5t-3.5 31t-9 27t-18 15.5t-29 7q-21 0 -33.5 -8t-17.5 -27.5t-6 -35t-1 -48.5zM165 80q40 0 84 51v156 q-129 -55 -129 -149q0 -58 45 -58z" />
<glyph unicode="&#xe7;" horiz-adv-x="369" d="M250 191h91v-2q0 -122 -50 -167q-27 -26 -74 -30l-7 -35q73 -6 73 -60q0 -67 -121 -67q-44 0 -76 12l5 47q34 -12 68 -12q45 0 45 23t-39 23h-22l14 69q-44 5 -71 30q-29 27 -39.5 72t-10.5 119v104q0 74 10.5 119t39.5 71q36 33 103 33t102 -32q47 -42 47 -157v-2h-90v2 q0 26 -1 40t-6 32.5t-18.5 27t-34.5 8.5q-17 0 -28.5 -7t-17 -16t-8.5 -28.5t-3.5 -32.5t-0.5 -41v-138q0 -27 0.5 -40t3.5 -33t8.5 -29t17 -16t28.5 -7q22 0 35.5 10t19 30.5t6.5 35.5t1 42v2z" />
<glyph unicode="&#xe8;" horiz-adv-x="375" d="M342 250h-212v-54q0 -24 0.5 -35.5t2 -29.5t5 -26t9.5 -17.5t16 -13t24 -3.5q23 0 37 9.5t19.5 27.5t6.5 30t1 31v2h91v-2q0 -102 -51 -147q-36 -32 -103 -32t-102 32q-29 26 -39.5 71.5t-10.5 119.5v104q0 74 10.5 119t39.5 71q35 33 104 33q65 0 100 -32 q52 -47 52 -191v-67zM130 340v-21h118v21q0 26 -0.5 38.5t-3.5 31t-9 27t-18 15.5t-29 7q-21 0 -33.5 -8t-17.5 -27.5t-6 -35t-1 -48.5zM254 594h-70l-120 121h116z" />
<glyph unicode="&#xe9;" horiz-adv-x="375" d="M342 250h-212v-54q0 -24 0.5 -35.5t2 -29.5t5 -26t9.5 -17.5t16 -13t24 -3.5q23 0 37 9.5t19.5 27.5t6.5 30t1 31v2h91v-2q0 -102 -51 -147q-36 -32 -103 -32t-102 32q-29 26 -39.5 71.5t-10.5 119.5v104q0 74 10.5 119t39.5 71q35 33 104 33q65 0 100 -32 q52 -47 52 -191v-67zM130 340v-21h118v21q0 26 -0.5 38.5t-3.5 31t-9 27t-18 15.5t-29 7q-21 0 -33.5 -8t-17.5 -27.5t-6 -35t-1 -48.5zM193 594h-70l75 121h115z" />
<glyph unicode="&#xea;" horiz-adv-x="375" d="M342 250h-212v-54q0 -24 0.5 -35.5t2 -29.5t5 -26t9.5 -17.5t16 -13t24 -3.5q23 0 37 9.5t19.5 27.5t6.5 30t1 31v2h91v-2q0 -102 -51 -147q-36 -32 -103 -32t-102 32q-29 26 -39.5 71.5t-10.5 119.5v104q0 74 10.5 119t39.5 71q35 33 104 33q65 0 100 -32 q52 -47 52 -191v-67zM130 340v-21h118v21q0 26 -0.5 38.5t-3.5 31t-9 27t-18 15.5t-29 7q-21 0 -33.5 -8t-17.5 -27.5t-6 -35t-1 -48.5zM312 594h-58l-65 60l-65 -60h-59l79 121h88z" />
<glyph unicode="&#xeb;" horiz-adv-x="375" d="M342 250h-212v-54q0 -24 0.5 -35.5t2 -29.5t5 -26t9.5 -17.5t16 -13t24 -3.5q23 0 37 9.5t19.5 27.5t6.5 30t1 31v2h91v-2q0 -102 -51 -147q-36 -32 -103 -32t-102 32q-29 26 -39.5 71.5t-10.5 119.5v104q0 74 10.5 119t39.5 71q35 33 104 33q65 0 100 -32 q52 -47 52 -191v-67zM130 340v-21h118v21q0 26 -0.5 38.5t-3.5 31t-9 27t-18 15.5t-29 7q-21 0 -33.5 -8t-17.5 -27.5t-6 -35t-1 -48.5zM219 616v99h92v-99h-92zM66 616v99h92v-99h-92z" />
<glyph unicode="&#xec;" horiz-adv-x="194" d="M161 594h-71l-120 121h117zM49 530h96l-1 -73v-384l1 -73h-96l1 73v384z" />
<glyph unicode="&#xed;" horiz-adv-x="194" d="M100 594h-70l76 121h115zM49 530h96l-1 -73v-384l1 -73h-96l1 73v384z" />
<glyph unicode="&#xee;" horiz-adv-x="194" d="M219 594h-58l-65 60l-66 -60h-58l79 121h87zM49 530h96l-1 -73v-384l1 -73h-96l1 73v384z" />
<glyph unicode="&#xef;" horiz-adv-x="194" d="M126 616v99h92v-99h-92zM-28 616v99h92v-99h-92zM49 530h96l-1 -73v-384l1 -73h-96l1 73v384z" />
<glyph unicode="&#xf0;" horiz-adv-x="379" d="M342 685v-63l-62 -13q62 -116 62 -269v-127q0 -74 -11 -119.5t-40 -71.5q-35 -32 -103 -32q-67 0 -102 32q-29 26 -39.5 71.5t-10.5 119.5v104q0 147 50 191q35 32 92 32q33 0 50 -12h4q-11 30 -31 66l-127 -25v64l89 17q-12 17 -57 65l90 9q28 -30 48 -58zM189 71 q17 0 28.5 6.5t17.5 15t9 28t3.5 33t0.5 42.5v138q0 29 -0.5 42.5t-3.5 33t-9 28t-17.5 15t-28.5 6.5t-28.5 -6.5t-17.5 -15t-9 -28t-3.5 -33t-0.5 -42.5v-138q0 -29 0.5 -42.5t3.5 -33t9 -28t17.5 -15t28.5 -6.5z" />
<glyph unicode="&#xf1;" horiz-adv-x="399" d="M258 73v316q0 18 -0.5 26.5t-4 19.5t-11.5 15.5t-21 4.5q-33 0 -77 -40v-342l1 -73h-96l1 73v384l-1 73h90v-60h1q70 68 128 68q84 0 84 -110v-355l1 -73h-96zM59 596q0 64 22.5 93.5t58.5 29.5q32 0 68 -28q3 -2 11.5 -9t13 -10t11 -6t12.5 -3q27 0 27 52h54 q0 -64 -23 -94t-58 -30q-32 0 -68 28q-3 2 -9.5 7.5t-10.5 8t-9 6t-10 5t-10 1.5q-26 0 -26 -51h-54z" />
<glyph unicode="&#xf2;" horiz-adv-x="378" d="M189 -10q-67 0 -103 33q-29 26 -39.5 70.5t-10.5 119.5v104q0 74 10.5 118.5t39.5 71.5q36 33 103 33t102 -33q29 -27 40 -72t11 -118v-104q0 -142 -51 -190q-35 -33 -102 -33zM189 71q17 0 28.5 6.5t17.5 15t9 28t3.5 33t0.5 42.5v138q0 29 -0.5 42.5t-3.5 33t-9 28 t-17.5 15t-28.5 6.5t-28.5 -6.5t-17.5 -15t-9 -28t-3.5 -33t-0.5 -42.5v-138q0 -29 0.5 -42.5t3.5 -33t9 -28t17.5 -15t28.5 -6.5zM254 594h-70l-120 121h116z" />
<glyph unicode="&#xf3;" horiz-adv-x="378" d="M189 -10q-67 0 -103 33q-29 26 -39.5 70.5t-10.5 119.5v104q0 74 10.5 118.5t39.5 71.5q36 33 103 33t102 -33q29 -27 40 -72t11 -118v-104q0 -142 -51 -190q-35 -33 -102 -33zM189 71q17 0 28.5 6.5t17.5 15t9 28t3.5 33t0.5 42.5v138q0 29 -0.5 42.5t-3.5 33t-9 28 t-17.5 15t-28.5 6.5t-28.5 -6.5t-17.5 -15t-9 -28t-3.5 -33t-0.5 -42.5v-138q0 -29 0.5 -42.5t3.5 -33t9 -28t17.5 -15t28.5 -6.5zM193 594h-70l75 121h115z" />
<glyph unicode="&#xf4;" horiz-adv-x="378" d="M189 -10q-67 0 -103 33q-29 26 -39.5 70.5t-10.5 119.5v104q0 74 10.5 118.5t39.5 71.5q36 33 103 33t102 -33q29 -27 40 -72t11 -118v-104q0 -142 -51 -190q-35 -33 -102 -33zM189 71q17 0 28.5 6.5t17.5 15t9 28t3.5 33t0.5 42.5v138q0 29 -0.5 42.5t-3.5 33t-9 28 t-17.5 15t-28.5 6.5t-28.5 -6.5t-17.5 -15t-9 -28t-3.5 -33t-0.5 -42.5v-138q0 -29 0.5 -42.5t3.5 -33t9 -28t17.5 -15t28.5 -6.5zM312 594h-58l-65 60l-65 -60h-59l79 121h88z" />
<glyph unicode="&#xf5;" horiz-adv-x="378" d="M189 -10q-67 0 -103 33q-29 26 -39.5 70.5t-10.5 119.5v104q0 74 10.5 118.5t39.5 71.5q36 33 103 33t102 -33q29 -27 40 -72t11 -118v-104q0 -142 -51 -190q-35 -33 -102 -33zM189 71q17 0 28.5 6.5t17.5 15t9 28t3.5 33t0.5 42.5v138q0 29 -0.5 42.5t-3.5 33t-9 28 t-17.5 15t-28.5 6.5t-28.5 -6.5t-17.5 -15t-9 -28t-3.5 -33t-0.5 -42.5v-138q0 -29 0.5 -42.5t3.5 -33t9 -28t17.5 -15t28.5 -6.5zM48 596q0 64 22.5 93.5t58.5 29.5q32 0 68 -28q3 -2 11.5 -9t13 -10t11 -6t12.5 -3q27 0 27 52h54q0 -64 -23 -94t-58 -30q-32 0 -68 28 q-3 2 -9.5 7.5t-10.5 8t-9 6t-10 5t-10 1.5q-26 0 -26 -51h-54z" />
<glyph unicode="&#xf6;" horiz-adv-x="378" d="M189 -10q-67 0 -103 33q-29 26 -39.5 70.5t-10.5 119.5v104q0 74 10.5 118.5t39.5 71.5q36 33 103 33t102 -33q29 -27 40 -72t11 -118v-104q0 -142 -51 -190q-35 -33 -102 -33zM189 71q17 0 28.5 6.5t17.5 15t9 28t3.5 33t0.5 42.5v138q0 29 -0.5 42.5t-3.5 33t-9 28 t-17.5 15t-28.5 6.5t-28.5 -6.5t-17.5 -15t-9 -28t-3.5 -33t-0.5 -42.5v-138q0 -29 0.5 -42.5t3.5 -33t9 -28t17.5 -15t28.5 -6.5zM219 616v99h92v-99h-92zM66 616v99h92v-99h-92z" />
<glyph unicode="&#xf7;" d="M36 255v88h462v-88h-462zM211 41v110h114v-110h-114zM211 447v111h114v-111h-114z" />
<glyph unicode="&#xf8;" horiz-adv-x="378" d="M148 -75h-73l20 90q-35 27 -47 74t-12 124v104q0 74 10.5 118.5t39.5 71.5q36 33 103 33q19 0 34 -3l12 46h72l-19 -74q31 -28 42.5 -73t11.5 -119v-104q0 -142 -51 -190q-35 -33 -102 -33q-18 0 -27 1zM129 335v-180l102 292q-14 16 -42 16q-18 0 -29.5 -6.5 t-17.5 -15.5t-9 -28.5t-3.5 -33.5t-0.5 -44zM189 67q18 0 29.5 6.5t17.5 15.5t9 28.5t3.5 33.5t0.5 44v153l-95 -272q12 -9 35 -9z" />
<glyph unicode="&#xf9;" horiz-adv-x="399" d="M141 457v-316q0 -18 0.5 -26.5t4 -19.5t11.5 -15.5t21 -4.5q33 0 77 40v342l-1 73h96l-1 -73v-384l1 -73h-90v60h-1q-70 -68 -128 -68q-84 0 -84 110v355l-1 73h96zM264 594h-70l-120 121h116z" />
<glyph unicode="&#xfa;" horiz-adv-x="399" d="M141 457v-316q0 -18 0.5 -26.5t4 -19.5t11.5 -15.5t21 -4.5q33 0 77 40v342l-1 73h96l-1 -73v-384l1 -73h-90v60h-1q-70 -68 -128 -68q-84 0 -84 110v355l-1 73h96zM203 594h-70l75 121h115z" />
<glyph unicode="&#xfb;" horiz-adv-x="399" d="M141 457v-316q0 -18 0.5 -26.5t4 -19.5t11.5 -15.5t21 -4.5q33 0 77 40v342l-1 73h96l-1 -73v-384l1 -73h-90v60h-1q-70 -68 -128 -68q-84 0 -84 110v355l-1 73h96zM322 594h-58l-65 60l-65 -60h-59l79 121h88z" />
<glyph unicode="&#xfc;" horiz-adv-x="399" d="M141 457v-316q0 -18 0.5 -26.5t4 -19.5t11.5 -15.5t21 -4.5q33 0 77 40v342l-1 73h96l-1 -73v-384l1 -73h-90v60h-1q-70 -68 -128 -68q-84 0 -84 110v355l-1 73h96zM229 616v99h92v-99h-92zM76 616v99h92v-99h-92z" />
<glyph unicode="&#xfd;" horiz-adv-x="347" d="M122 26l-114 504h93l59 -288q1 -3 6 -32.5t7 -41.5h3q3 22 13 73l57 289h92l-131 -582q-28 -112 -135 -112q-22 0 -59 5v84q24 -2 40 -2q42 0 59.5 29t9.5 74zM180 594h-70l75 121h115z" />
<glyph unicode="&#xfe;" horiz-adv-x="394" d="M212 458q-34 0 -68 -31v-326q34 -29 65 -29q19 0 30.5 9t16 27t5.5 31t1 36v187q0 22 -1 34.5t-5 29t-15 24.5t-29 8zM144 642v-156h4q33 29 56.5 40.5t53.5 11.5q24 0 41.5 -7.5t27.5 -24t16.5 -31.5t9 -42t3 -42.5t0.5 -45.5v-153q0 -29 -0.5 -45t-3 -43.5t-9 -43.5 t-17.5 -34t-29 -26t-43 -8q-53 0 -110 54v-137l1 -73h-96l1 73v733l-1 73h96z" />
<glyph unicode="&#xff;" horiz-adv-x="347" d="M122 26l-114 504h93l59 -288q1 -3 6 -32.5t7 -41.5h3q3 22 13 73l57 289h92l-131 -582q-28 -112 -135 -112q-22 0 -59 5v84q24 -2 40 -2q42 0 59.5 29t9.5 74zM206 616v99h92v-99h-92zM53 616v99h92v-99h-92z" />
<glyph unicode="&#x152;" horiz-adv-x="637" d="M565 419v-92h-161v-236h204v-91h-306v45h-4q-32 -48 -99 -48q-63 0 -99 39q-29 32 -39.5 84t-10.5 134v207q0 83 12 141t48 88q35 28 90 28q65 0 98 -48h4v45h302v-91h-200v-205h161zM227 84q21 0 36 8.5t22 19t11 32.5t4.5 36t0.5 43v269q0 29 -0.5 43t-4.5 36t-11 32.5 t-22 19t-36 8.5t-35.5 -8.5t-22 -19t-11 -32.5t-4 -36t-0.5 -43v-269q0 -29 0.5 -43t4 -36t11 -32.5t22 -19t35.5 -8.5z" />
<glyph unicode="&#x153;" horiz-adv-x="587" d="M403 -10q-75 0 -108 45h-1q-32 -45 -108 -45q-65 0 -100 32q-29 26 -39.5 71.5t-10.5 119.5v104q0 74 10.5 119t39.5 71q36 33 100 33q73 0 108 -45h2q32 45 108 45q63 0 98 -32q52 -48 52 -191v-67h-212v-56q0 -27 0.5 -40.5t3.5 -32.5t8.5 -27.5t17 -15.5t28.5 -7 q22 0 36 9.5t19.5 27.5t6.5 30t1 31v2h91v-2q0 -103 -50 -147q-36 -32 -101 -32zM189 71q17 0 28.5 6.5t17.5 15t9 28t3.5 33t0.5 42.5v138q0 29 -0.5 42.5t-3.5 33t-9 28t-17.5 15t-28.5 6.5t-28.5 -6.5t-17.5 -15t-9 -28t-3.5 -33t-0.5 -42.5v-138q0 -29 0.5 -42.5 t3.5 -33t9 -28t17.5 -15t28.5 -6.5zM342 340v-21h118v21q0 26 -0.5 38.5t-3.5 31t-9 27t-18 15.5t-29 7q-21 0 -33.5 -8t-17.5 -27.5t-6 -35t-1 -48.5z" />
<glyph unicode="&#x178;" horiz-adv-x="405" d="M110 715l93 -288h3l93 288h102l-145 -422v-220l1 -73h-106l1 73v220l-146 422h104zM235 761v99h92v-99h-92zM82 761v99h92v-99h-92z" />
<glyph unicode="&#x2c6;" horiz-adv-x="342" d="M294 594h-58l-65 60l-65 -60h-59l79 121h88z" />
<glyph unicode="&#x2dc;" horiz-adv-x="342" d="M30 596q0 64 22.5 93.5t58.5 29.5q32 0 68 -28q3 -2 11.5 -9t13 -10t11 -6t12.5 -3q27 0 27 52h54q0 -64 -23 -94t-58 -30q-32 0 -68 28q-3 2 -9.5 7.5t-10.5 8t-9 6t-10 5t-10 1.5q-26 0 -26 -51h-54z" />
<glyph unicode="&#x2000;" horiz-adv-x="463" />
<glyph unicode="&#x2001;" horiz-adv-x="927" />
<glyph unicode="&#x2002;" horiz-adv-x="463" />
<glyph unicode="&#x2003;" horiz-adv-x="927" />
<glyph unicode="&#x2004;" horiz-adv-x="309" />
<glyph unicode="&#x2005;" horiz-adv-x="231" />
<glyph unicode="&#x2006;" horiz-adv-x="154" />
<glyph unicode="&#x2007;" horiz-adv-x="154" />
<glyph unicode="&#x2008;" horiz-adv-x="115" />
<glyph unicode="&#x2009;" horiz-adv-x="185" />
<glyph unicode="&#x200a;" horiz-adv-x="51" />
<glyph unicode="&#x2010;" horiz-adv-x="279" d="M44 251v96h191v-96h-191z" />
<glyph unicode="&#x2011;" horiz-adv-x="279" d="M44 251v96h191v-96h-191z" />
<glyph unicode="&#x2012;" horiz-adv-x="279" d="M44 251v96h191v-96h-191z" />
<glyph unicode="&#x2013;" horiz-adv-x="349" d="M44 255v88h261v-88h-261z" />
<glyph unicode="&#x2014;" horiz-adv-x="595" d="M44 255v88h508v-88h-508z" />
<glyph unicode="&#x2018;" horiz-adv-x="182" d="M137 589v-115h-99v115l56 126h51l-40 -126h32z" />
<glyph unicode="&#x2019;" horiz-adv-x="182" d="M45 600v115h100v-115l-57 -126h-50l40 126h-33z" />
<glyph unicode="&#x201a;" horiz-adv-x="184" d="M42 1v115h100v-115l-57 -126h-51l40 126h-32z" />
<glyph unicode="&#x201c;" horiz-adv-x="334" d="M137 589v-115h-99v115l56 126h51l-40 -126h32zM289 589v-115h-99v115l57 126h50l-41 -126h33z" />
<glyph unicode="&#x201d;" horiz-adv-x="334" d="M198 600v115h100v-115l-58 -126h-50l40 126h-32zM45 600v115h100v-115l-57 -126h-50l40 126h-33z" />
<glyph unicode="&#x201e;" horiz-adv-x="336" d="M194 1v115h100v-115l-57 -126h-50l39 126h-32zM42 1v115h100v-115l-57 -126h-51l40 126h-32z" />
<glyph unicode="&#x2022;" horiz-adv-x="361" d="M48 300q0 56 38 94.5t94 38.5t94.5 -38.5t38.5 -94.5t-38.5 -94t-94.5 -38t-94 38t-38 94z" />
<glyph unicode="&#x2026;" horiz-adv-x="599" d="M56 0v116h96v-116h-96zM251 0v116h97v-116h-97zM447 0v116h96v-116h-96z" />
<glyph unicode="&#x202f;" horiz-adv-x="185" />
<glyph unicode="&#x2039;" horiz-adv-x="260" d="M221 131h-74l-125 163v19l123 163h76l-100 -173z" />
<glyph unicode="&#x203a;" horiz-adv-x="260" d="M112 131h-74l100 172l-100 173h76l124 -163v-19z" />
<glyph unicode="&#x205f;" horiz-adv-x="231" />
<glyph unicode="&#x20ac;" horiz-adv-x="480" d="M26 399v65h72v6q0 95 14 142t41 73q44 42 119 42q73 0 117 -39q56 -50 56 -148v-2h-98v2q0 95 -77 95q-25 0 -40 -10t-21 -33.5t-7.5 -41.5t-1.5 -54v-32h183v-65h-183v-61h183v-65h-183v-53q0 -30 0.5 -44.5t4 -36.5t11 -32.5t21.5 -18.5t35 -8q26 0 43 10.5t23 31 t7.5 34t1.5 35.5v2h98v-2q0 -115 -56 -166q-41 -37 -116 -37q-76 0 -120 40q-55 52 -55 218v27h-72v65h72v61h-72z" />
<glyph unicode="&#x2122;" horiz-adv-x="507" d="M206 668h-54v-239h-56v239h-54v47h164v-47zM327 429l-37 150q-6 26 -8 36h-2q1 -16 1 -35v-151h-48v286h71l37 -141q4 -14 6 -36h2q2 16 7 36l36 141h72v-286h-52v151q0 19 1 35h-2q-4 -26 -7 -36l-39 -150h-38z" />
<glyph unicode="&#x25fc;" horiz-adv-x="530" d="M0 530h530v-530h-530v530z" />
</font>
</defs>
</svg>
