<?xml version="1.0" standalone="no"?>
<!DOCTYPE svg PUBLIC "-//W3C//DTD SVG 1.1//EN" "http://www.w3.org/Graphics/SVG/1.1/DTD/svg11.dtd" >
<svg xmlns="http://www.w3.org/2000/svg" xmlns:xlink="http://www.w3.org/1999/xlink" version="1.1">
<metadata></metadata>
<defs>
<font id="alternate_gothic_atfdemi" horiz-adv-x="473" >
<font-face units-per-em="1000" ascent="750" descent="-250" />
<missing-glyph horiz-adv-x="148" />
<glyph unicode="&#xfb01;" horiz-adv-x="474" d="M10 432v98h66v50q0 139 137 139q25 0 63 -5v-99q-24 2 -38 2q-24 0 -35.5 -10.5t-11.5 -39.5v-37h85v-98h-85v-359l1 -73h-117l1 73v359h-66zM311 530h117l-1 -73v-384l1 -73h-117l1 73v384zM312 615v100h115v-100h-115z" />
<glyph unicode="&#xfb02;" horiz-adv-x="474" d="M10 432v98h66v50q0 139 137 139q25 0 63 -5v-99q-24 2 -38 2q-24 0 -35.5 -10.5t-11.5 -39.5v-37h85v-98h-85v-359l1 -73h-117l1 73v359h-66zM311 715h117l-1 -73v-569l1 -73h-117l1 73v569z" />
<glyph unicode="&#xfb03;" horiz-adv-x="705" d="M10 432v98h66v50q0 139 137 139q25 0 63 -5v-99q-24 2 -38 2q-24 0 -35.5 -10.5t-11.5 -39.5v-37h116v50q0 139 137 139q25 0 63 -5v-99q-24 2 -38 2q-24 0 -35.5 -10.5t-11.5 -39.5v-37h85v-98h-85v-359l1 -73h-117l1 73v359h-116v-359l1 -73h-117l1 73v359h-66z M542 530h117l-1 -73v-384l1 -73h-117l1 73v384zM543 615v100h115v-100h-115z" />
<glyph unicode="&#xfb04;" horiz-adv-x="705" d="M10 432v98h66v50q0 139 137 139q25 0 63 -5v-99q-24 2 -38 2q-24 0 -35.5 -10.5t-11.5 -39.5v-37h116v50q0 139 137 139q25 0 63 -5v-99q-24 2 -38 2q-24 0 -35.5 -10.5t-11.5 -39.5v-37h85v-98h-85v-359l1 -73h-117l1 73v359h-116v-359l1 -73h-117l1 73v359h-66z M542 715h117l-1 -73v-569l1 -73h-117l1 73v569z" />
<glyph horiz-adv-x="0" />
<glyph horiz-adv-x="333" />
<glyph horiz-adv-x="0" />
<glyph horiz-adv-x="0" />
<glyph unicode="&#xd;" horiz-adv-x="250" />
<glyph unicode=" "  horiz-adv-x="148" />
<glyph unicode="&#x09;" horiz-adv-x="148" />
<glyph unicode="&#xa0;" horiz-adv-x="148" />
<glyph unicode="!" horiz-adv-x="217" d="M49 0v116h118v-116h-118zM68 211l-26 504h133l-26 -504h-81z" />
<glyph unicode="&#x22;" horiz-adv-x="367" d="M67 715h122l-100 -241h-61zM237 715h122l-100 -241h-61z" />
<glyph unicode="#" horiz-adv-x="594" d="M456 715h85l-44 -179h75v-102h-100l-38 -152h85v-102h-110l-44 -180h-85l44 180h-139l-44 -180h-86l44 180h-78v102h103l37 152h-86v102h111l44 179h85l-44 -179h141zM247 434l-37 -152h139l38 152h-140z" />
<glyph unicode="$" horiz-adv-x="416" d="M164 749h89v-65q106 -22 130 -156l-120 -15q-12 62 -57 62q-24 0 -37 -15t-13 -36q0 -29 17.5 -51t58.5 -52l56 -38q104 -76 104 -187q0 -67 -37 -112t-102 -57v-97h-89v98q-120 26 -143 169l120 17q12 -76 68 -76q28 0 43.5 14.5t15.5 38.5q0 28 -17.5 51t-57.5 52 l-57 39q-103 77 -103 185q0 63 35.5 108t95.5 58v65z" />
<glyph unicode="%" horiz-adv-x="771" d="M172 329q-66 0 -104 32q-45 35 -45 146v37q0 59 10 92.5t35 53.5q38 32 104 32t104 -32q45 -38 45 -146v-37q0 -109 -45 -146q-38 -32 -104 -32zM172 418q18 0 26.5 11.5t10 23t1.5 33.5v79q0 17 -0.5 25.5t-4 20t-11.5 17t-22 5.5q-18 0 -26.5 -11.5t-10 -23t-1.5 -33.5 v-79q0 -17 0.5 -25.5t4 -20t11.5 -17t22 -5.5zM599 -7q-66 0 -104 32q-45 35 -45 146v37q0 59 10 92.5t35 53.5q38 32 104 32t104 -32q45 -38 45 -146v-37q0 -109 -45 -146q-38 -32 -104 -32zM599 82q18 0 26.5 11.5t10 23t1.5 33.5v79q0 17 -0.5 25.5t-4 20t-11.5 17 t-22 5.5q-18 0 -26.5 -11.5t-10 -23t-1.5 -33.5v-79q0 -17 0.5 -25.5t4 -20t11.5 -17t22 -5.5zM192 0l290 715h98l-290 -715h-98z" />
<glyph unicode="&#x26;" horiz-adv-x="510" d="M223 727q67 0 107 -44.5t40 -114.5q0 -50 -25.5 -96.5t-90.5 -118.5q37 -65 86 -129q28 56 43 118l103 -24q-22 -91 -69 -176q39 -33 68 -36l-1 -118q-74 -1 -144 55q-63 -55 -145 -55q-80 0 -126.5 47.5t-46.5 120.5q0 101 93 202q-57 117 -57 191q0 78 46.5 128 t118.5 50zM173 559q0 -47 32 -115q52 59 52 119q0 32 -11 49t-28 17q-19 0 -32 -18.5t-13 -51.5zM265 121q-52 64 -95 137q-28 -45 -28 -87q0 -35 18.5 -52t48.5 -17t56 19z" />
<glyph unicode="'" horiz-adv-x="198" d="M28 474l39 241h122l-100 -241h-61z" />
<glyph unicode="(" horiz-adv-x="282" d="M274 -138h-97q-58 56 -104 173.5t-46 248.5q0 135 44 249t106 182h97q-2 -3 -14.5 -26t-18.5 -34.5t-19 -39.5t-20 -49.5t-17 -55.5t-15.5 -65.5t-9.5 -73t-4 -83.5q0 -57 7 -110.5t15.5 -90t24.5 -77.5t25 -59.5t26 -51t20 -37.5z" />
<glyph unicode=")" horiz-adv-x="282" d="M105 -138h-97q3 5 20 37.5t26 51t25 59.5t24.5 77.5t15.5 90t7 110.5q0 42 -4 83.5t-9.5 73t-15.5 65.5t-17 55.5t-20 49.5t-19 39.5t-18.5 34.5t-14.5 26h97q62 -68 106 -182t44 -249q0 -131 -46 -248.5t-104 -173.5z" />
<glyph unicode="*" horiz-adv-x="361" d="M153 715h53l20 -100l103 12l17 -50l-89 -50l42 -95l-41 -31l-75 68l-77 -69l-42 31l40 91l-89 52l17 51l100 -11z" />
<glyph unicode="+" horiz-adv-x="535" d="M211 558h115v-205h200v-108h-200v-204h-115v204h-202v108h202v205z" />
<glyph unicode="," horiz-adv-x="208" d="M38 0v116h131v-115l-64 -126h-64l49 125h-52z" />
<glyph unicode="-" horiz-adv-x="281" d="M43 240v118h195v-118h-195z" />
<glyph unicode="." horiz-adv-x="200" d="M40 0v116h119v-116h-119z" />
<glyph unicode="/" horiz-adv-x="360" d="M109 -82h-97l237 797h99z" />
<glyph unicode="0" horiz-adv-x="463" d="M232 -12q-79 0 -125 41q-32 27 -46 79.5t-14 156.5v185q0 104 14 156t46 80q46 41 125 41t125 -41q31 -28 45.5 -80.5t14.5 -155.5v-185q0 -103 -14.5 -156t-45.5 -80q-46 -41 -125 -41zM232 102q18 0 29.5 7t17.5 15.5t9 29t3.5 34.5t0.5 44v251q0 30 -0.5 44t-3.5 34.5 t-9 29t-17.5 15.5t-29.5 7t-29.5 -7t-17.5 -15.5t-9 -29t-3.5 -34.5t-0.5 -44v-251q0 -30 0.5 -44t3.5 -34.5t9 -29t17.5 -15.5t29.5 -7z" />
<glyph unicode="1" horiz-adv-x="308" d="M117 535h-103v75q58 23 100.5 54.5t54.5 54.5h76l-1 -73v-573l1 -73h-129l1 73v462z" />
<glyph unicode="2" horiz-adv-x="427" d="M396 538v-2q0 -70 -32 -135t-102 -163l-94 -126h222v-112h-362v102l132 185q59 82 85.5 137.5t26.5 109.5v2q0 79 -55 79q-63 0 -63 -115v-2h-121v2q0 114 49.5 170.5t137.5 56.5q87 0 131.5 -51t44.5 -138z" />
<glyph unicode="3" horiz-adv-x="428" d="M29 212h122v-2q0 -22 0.5 -33.5t3.5 -29t8.5 -26t17 -15t28.5 -6.5q27 0 41 16.5t16.5 34.5t2.5 49q0 67 -20 91.5t-70 24.5h-23v114h23q47 0 64 21t17 84q0 22 -2.5 37t-14.5 29t-34 14q-19 0 -31 -8.5t-16.5 -26.5t-5.5 -30.5t-1 -34.5v-2h-120v2q0 118 62 172 q46 40 113 40q72 0 119 -42q53 -48 54 -150q0 -67 -19.5 -100.5t-62.5 -54.5v-5q90 -33 93 -167q0 -123 -59 -177q-48 -43 -126 -43t-124 41q-56 51 -56 181v2z" />
<glyph unicode="4" horiz-adv-x="451" d="M233 0l1 73v84h-214v123l203 435h134l-1 -73v-377h75v-108h-75v-84l1 -73h-124zM124 265h110v144q0 60 6 110h-4q-10 -34 -29 -76z" />
<glyph unicode="5" horiz-adv-x="426" d="M210 -12q-77 0 -123 41q-56 51 -56 181v2h122v-2q0 -29 1 -43.5t6 -33t17 -26t32 -7.5q14 0 24.5 4t17 13.5t10 18.5t5 27.5t2 30t0.5 35.5v35q0 28 -0.5 41t-3 32.5t-8 28.5t-16 16t-26.5 7q-43 0 -68 -44h-100l10 370h319v-112h-215l-4 -135q47 33 101 33q53 0 89 -33 q27 -25 38 -71.5t11 -132.5v-35q0 -146 -59 -198q-48 -43 -126 -43z" />
<glyph unicode="6" horiz-adv-x="452" d="M175 482v-78q49 40 107 40q51 0 87 -33q27 -26 39.5 -68t12.5 -129q-2 -135 -60 -185q-47 -41 -127 -41q-77 0 -125 41q-31 27 -46.5 77t-15.5 154v195q0 101 14.5 153.5t47.5 79.5q47 39 120 39q77 0 123 -41q56 -51 56 -171v-2h-122v2q0 22 -1 34t-5.5 30t-17 27 t-32.5 9q-16 0 -27 -7.5t-16.5 -17t-8 -30.5t-3 -35t-0.5 -43zM238 332q-39 0 -63 -31v-68q0 -35 1 -52.5t6.5 -39.5t19 -31.5t35.5 -9.5q36 0 46.5 27t10.5 87q0 29 -0.5 42t-3 31t-8.5 25.5t-17 13.5t-27 6z" />
<glyph unicode="7" horiz-adv-x="369" d="M198 0h-126l144 603h-211v112h339v-83z" />
<glyph unicode="8" horiz-adv-x="433" d="M216 -12q-78 0 -124 43q-58 52 -58 177v3q0 122 86 167v4q-75 50 -75 154v5q0 100 54 147q43 39 117 39t118 -39q54 -47 54 -147v-5q0 -103 -75 -154v-4q86 -45 86 -167v-3q0 -124 -58 -177q-46 -43 -125 -43zM216 100q59 0 59 108v2v23.5t-3 26t-8.5 29.5t-17.5 19 t-30 9q-21 0 -34.5 -11t-18 -33t-5 -32t-0.5 -31v-2q0 -108 58 -108zM216 434q15 0 25.5 7.5t15.5 16t8 24.5t3 23.5v22.5v2q0 88 -52 88q-51 0 -51 -88v-2v-22.5t2.5 -23t7.5 -25t15.5 -16t25.5 -7.5z" />
<glyph unicode="9" horiz-adv-x="452" d="M222 100q16 0 27 7.5t16.5 17t8 30.5t3 35t0.5 43v78q-51 -40 -107 -40q-51 0 -87 33q-27 25 -39 64.5t-13 119.5q0 146 60 198q47 41 127 41q77 0 125 -41q31 -27 46.5 -77t15.5 -154v-195q0 -101 -14.5 -153.5t-47.5 -79.5q-47 -39 -120 -39q-77 0 -123 41 q-56 51 -56 171v2h122v-2q0 -22 1 -34t5.5 -30t17 -27t32.5 -9zM214 383q40 0 63 31v68q0 35 -1 52.5t-6.5 39.5t-19 31.5t-35.5 9.5q-14 0 -24 -3.5t-16 -13t-9.5 -18t-5 -26.5t-2 -30t-0.5 -36q0 -58 9.5 -81.5t46.5 -23.5z" />
<glyph unicode=":" horiz-adv-x="203" d="M42 0v116h119v-116h-119zM42 414v116h119v-116h-119z" />
<glyph unicode=";" horiz-adv-x="224" d="M46 0v116h132v-115l-65 -126h-63l48 125h-52zM46 414v116h119v-116h-119z" />
<glyph unicode="&#x3c;" horiz-adv-x="535" d="M22 336l476 227v-125l-253 -108l-64 -23v-14l64 -22l253 -109v-124l-476 226v72z" />
<glyph unicode="=" horiz-adv-x="535" d="M29 469h476v-109h-476v109zM29 239h476v-109h-476v109z" />
<glyph unicode="&#x3e;" horiz-adv-x="535" d="M37 563l476 -227v-72l-476 -226v124l253 109l64 22v14l-64 23l-253 108v125z" />
<glyph unicode="?" horiz-adv-x="370" d="M116 0v116h118v-116h-118zM227 211h-104v68q0 41 10.5 80.5t21 61t29.5 53.5q4 7 16.5 28t17 29.5t9.5 23t5 26.5q0 18 -12 28.5t-33 10.5q-40 0 -72 -71l-101 39q54 139 180 139q73 0 115 -40t42 -105q0 -66 -58 -146q-22 -31 -32.5 -47t-22 -48.5t-11.5 -66.5v-63z" />
<glyph unicode="@" horiz-adv-x="769" d="M306 41q-55 0 -84.5 45.5t-29.5 120.5q0 114 60 212.5t136 98.5q32 0 54 -23t30 -61h4l20 73h101l-71 -300q-9 -37 -9 -49q0 -32 37 -32q43 0 74.5 77t29.5 168q-2 110 -64 177.5t-165 67.5q-59 0 -112.5 -24.5t-96 -70.5t-67.5 -119.5t-25 -164.5q0 -82 20.5 -141.5 t57.5 -92.5t83 -48t103 -15q91 0 188 45l35 -72q-91 -60 -230 -60q-75 0 -140 22.5t-117 68t-82 122t-30 176.5q0 111 36 201.5t95 146.5t131 86t147 30q144 0 231.5 -99.5t87.5 -244.5q0 -77 -22.5 -148.5t-72.5 -122t-117 -50.5q-47 0 -78 21.5t-37 60.5q-45 -82 -111 -82 zM340 146q41 0 69 57q34 71 34 147q-1 33 -13.5 50t-31.5 17q-31 0 -54 -45.5t-32.5 -94t-9.5 -81.5q0 -50 38 -50z" />
<glyph unicode="A" horiz-adv-x="444" d="M160 146l-23 -146h-131l129 715h174l129 -715h-129l-24 146h-125zM207 449l-29 -188h89l-30 188q-8 54 -12 105h-6q-1 -32 -12 -105z" />
<glyph unicode="B" horiz-adv-x="464" d="M229 0h-176l1 73v569l-1 73h173q97 0 147.5 -48.5t50.5 -132.5v-1q0 -108 -84 -156v-4q100 -46 100 -160v-2q0 -103 -54.5 -157t-156.5 -54zM181 112h37q49 0 69 26t20 79v2q0 98 -91 98h-35v-205zM181 603v-174h33q41 0 61.5 25t20.5 68v2q0 79 -80 79h-35z" />
<glyph unicode="C" horiz-adv-x="458" d="M237 -12q-81 0 -128 41q-32 28 -47 80t-15 156v185q0 104 15 156t47 80q47 41 128 41t127 -41q32 -28 47 -78t15 -142v-2h-129v2q0 41 -1 59.5t-6.5 41.5t-18 32t-34.5 9q-15 0 -25.5 -4t-17 -14t-10.5 -19t-5.5 -27.5t-2 -30t-0.5 -35.5v-241q0 -37 1 -54t6.5 -38 t18.5 -29.5t35 -8.5q15 0 26 4t17.5 15t10.5 20.5t5.5 32.5t2 38t0.5 49v1h129v-1q0 -104 -15.5 -156.5t-47.5 -80.5q-47 -41 -128 -41z" />
<glyph unicode="D" horiz-adv-x="478" d="M245 715q76 0 123 -41q33 -28 47.5 -73.5t14.5 -129.5v-227q0 -84 -14.5 -129.5t-47.5 -73.5q-47 -41 -123 -41h-192l1 73v569l-1 73h192zM225 603h-44v-491h44q76 0 76 97v297q0 97 -76 97z" />
<glyph unicode="E" horiz-adv-x="409" d="M335 316h-154v-204h200v-112h-328l1 73v569l-1 73h324v-112h-196v-173h154v-114z" />
<glyph unicode="F" horiz-adv-x="381" d="M335 316h-154v-243l1 -73h-129l1 73v569l-1 73h323v-112h-195v-173h154v-114z" />
<glyph unicode="G" horiz-adv-x="482" d="M241 261v115h192v-376h-60l-27 56h-2q-43 -66 -122 -66q-68 0 -113 39q-33 28 -47.5 82t-14.5 154v185q0 104 15 156t47 80q47 41 127 41q81 0 128 -41q32 -28 47 -78t15 -142v-2h-129v2q0 41 -1 59.5t-6.5 41.5t-18.5 32t-35 9q-15 0 -25.5 -4t-17 -14t-10 -19t-5 -27.5 t-2 -30t-0.5 -35.5v-241q0 -29 0.5 -43t3.5 -34.5t9 -29.5t18 -16t29 -7q18 0 31 5.5t20.5 18.5t12.5 25t6.5 33t2 34t0.5 37v1h-68z" />
<glyph unicode="H" horiz-adv-x="485" d="M304 715h128l-1 -73v-569l1 -73h-128l1 73v243h-124v-243l1 -73h-129l1 73v569l-1 73h129l-1 -73v-212h124v212z" />
<glyph unicode="I" horiz-adv-x="235" d="M53 715h129l-1 -73v-569l1 -73h-129l1 73v569z" />
<glyph unicode="J" horiz-adv-x="287" d="M15 -4v119h16q41 0 60 15.5t19 52.5v459l-1 73h129l-1 -73v-469q0 -99 -46 -138t-152 -39h-24z" />
<glyph unicode="K" d="M318 715h138l-137 -267l145 -448h-137l-99 320l-47 -91v-156l1 -73h-129l1 73v569l-1 73h129l-1 -73v-121q0 -37 -2 -81h4q7 13 20.5 39.5t17.5 34.5z" />
<glyph unicode="L" horiz-adv-x="372" d="M361 0h-308l1 73v569l-1 73h129l-1 -73v-530h180v-112z" />
<glyph unicode="M" horiz-adv-x="631" d="M53 0l1 73v569l-1 73h175l73 -356q9 -40 13 -95h4q8 73 13 95l74 356h173l-1 -73v-569l1 -73h-116l1 73v346q0 17 2 55t2 40h-5q-7 -60 -14 -93l-85 -421h-96l-85 421q-4 17 -9 54.5t-5 38.5h-4q3 -78 3 -95v-346l1 -73h-115z" />
<glyph unicode="N" horiz-adv-x="520" d="M53 715h132l129 -319q17 -43 30 -88h4q-5 65 -5 93v241l-1 73h125l-1 -73v-569l1 -73h-116l-143 361q-15 34 -32 88h-4q5 -65 5 -93v-283l1 -73h-125l1 73v569z" />
<glyph unicode="O" d="M236 -12q-80 0 -127 41q-32 28 -47 80t-15 156v185q0 104 15 156t47 80q47 41 127 41q81 0 128 -41q32 -28 47 -80t15 -156v-185q0 -104 -15 -156t-47 -80q-47 -41 -128 -41zM236 107q18 0 30 7t18 16.5t9 29.5t3.5 34t0.5 43v241q0 29 -0.5 43t-3.5 34t-9 29.5t-18 16.5 t-30 7q-17 0 -29 -7t-18 -16.5t-9 -29.5t-3.5 -34t-0.5 -43v-241q0 -29 0.5 -43t3.5 -34t9 -29.5t18 -16.5t29 -7z" />
<glyph unicode="P" horiz-adv-x="441" d="M53 0l1 73v569l-1 73h180q111 0 155 -56.5t44 -156.5v-2q0 -100 -44 -156.5t-155 -56.5h-52v-214l1 -73h-129zM181 399h36q48 0 66 26.5t18 74.5v2q0 48 -18 74.5t-66 26.5h-36v-204z" />
<glyph unicode="Q" d="M236 -12q-80 0 -127 41q-32 28 -47 80t-15 156v185q0 104 15 156t47 80q47 41 127 41q81 0 128 -41q32 -28 47 -80t15 -156v-185q0 -117 -21 -173q12 -21 54 -21v-122q-88 0 -134 55q-40 -16 -89 -16zM236 107q18 0 30 7t18 16.5t9 29.5t3.5 34t0.5 43v241q0 29 -0.5 43 t-3.5 34t-9 29.5t-18 16.5t-30 7q-17 0 -29 -7t-18 -16.5t-9 -29.5t-3.5 -34t-0.5 -43v-241q0 -29 0.5 -43t3.5 -34t9 -29.5t18 -16.5t29 -7z" />
<glyph unicode="R" horiz-adv-x="468" d="M230 294h-49v-221l1 -73h-129l1 73v569l-1 73h180q111 0 155 -56.5t44 -154.5v-2q0 -127 -80 -177l96 -325h-136zM181 603v-200h34q50 0 68 26.5t18 73.5v1q0 47 -18 73t-66 26h-36z" />
<glyph unicode="S" horiz-adv-x="440" d="M16 181l124 17q17 -91 85 -91q32 0 49 17t17 45q0 59 -83 120l-66 48q-113 83 -113 201q0 84 53 136.5t141 52.5q81 0 128.5 -46.5t59.5 -131.5l-125 -17q-11 76 -67 76q-28 0 -44 -18t-16 -46q0 -32 20.5 -58t63.5 -57l65 -47q113 -83 113 -206q0 -86 -53.5 -137 t-143.5 -51q-88 0 -141.5 50.5t-66.5 142.5z" />
<glyph unicode="T" horiz-adv-x="403" d="M391 603h-127v-530l1 -73h-128l1 73v530h-126v112h379v-112z" />
<glyph unicode="U" d="M296 715h129l-1 -73v-462q0 -91 -50 -141.5t-138 -50.5t-137.5 50t-49.5 142v462l-1 73h129l-1 -73v-448q0 -44 13.5 -65.5t46.5 -21.5t47 21.5t14 65.5v448z" />
<glyph unicode="V" horiz-adv-x="432" d="M233 339l71 376h128l-145 -715h-141l-145 715h131l70 -376q10 -68 13 -113h5q3 45 13 113z" />
<glyph unicode="W" horiz-adv-x="631" d="M123 0l-112 715h124l48 -353q6 -46 8 -92h4q4 58 10 92l56 353h110l57 -353q4 -24 9 -92h4q2 46 8 92l49 353h122l-113 -715h-123l-58 328q-4 24 -9 92h-4q-2 -58 -8 -92l-59 -328h-123z" />
<glyph unicode="X" horiz-adv-x="448" d="M224 239h-4l-79 -239h-134l142 380l-133 335h134l73 -215h4l72 215h132l-133 -335l143 -380h-136z" />
<glyph unicode="Y" horiz-adv-x="423" d="M129 715l82 -258h4l82 258h126l-147 -422v-220l1 -73h-130l1 73v220l-148 422h129z" />
<glyph unicode="Z" horiz-adv-x="422" d="M392 112v-112h-372v108l234 495h-212v112h353v-108l-236 -495h233z" />
<glyph unicode="[" horiz-adv-x="283" d="M261 -138h-210v853h210v-78h-88v-697h88v-78z" />
<glyph unicode="\" horiz-adv-x="360" d="M348 -82h-97l-239 797h99z" />
<glyph unicode="]" horiz-adv-x="283" d="M23 -138v78h88v697h-88v78h209v-853h-209z" />
<glyph unicode="^" horiz-adv-x="535" d="M230 715h73l234 -430h-128l-106 215l-31 71h-11l-30 -71l-105 -215h-128z" />
<glyph unicode="_" horiz-adv-x="444" d="M-2 -120v100h448v-100h-448z" />
<glyph unicode="`" horiz-adv-x="341" d="M244 587h-86l-133 128h143z" />
<glyph unicode="a" horiz-adv-x="402" d="M35 370q5 80 47 125t123 45q155 0 155 -168v-299q0 -29 7 -73h-114q-4 19 -6 53h-5q-36 -32 -63 -45.5t-62 -13.5q-43 0 -71 33.5t-28 88.5q0 66 31.5 112.5t108.5 82.5q33 15 87 36v36q0 61 -44 61q-46 0 -50 -74h-116zM177 100q33 0 68 36v136q-24 -11 -39.5 -20.5 t-32.5 -24.5t-25.5 -35t-8.5 -45q0 -47 38 -47z" />
<glyph unicode="b" horiz-adv-x="408" d="M46 715h117l-1 -73v-150q59 46 104 46q26 0 45.5 -9t30.5 -28t18 -37t10 -48t3.5 -47t0.5 -48v-128q0 -31 -0.5 -48t-3 -45t-9.5 -43.5t-17.5 -32.5t-29 -24.5t-43.5 -7.5q-27 0 -50.5 11.5t-59.5 39.5h-5v-43h-110l1 73v569zM208 440q-18 0 -46 -12v-320q34 -18 52 -18 q15 0 25 7.5t14 22.5t5 27t1 29v167q0 97 -51 97z" />
<glyph unicode="c" horiz-adv-x="383" d="M245 206h112v-2q0 -132 -52 -179q-38 -35 -111 -35q-71 0 -109 34q-53 47 -53 206v70q0 159 53 206q38 34 109 34q73 0 111 -35q49 -45 49 -168v-2h-110v2q0 27 -1 40.5t-5 30.5t-14.5 24.5t-28.5 7.5q-12 0 -20.5 -3t-13.5 -12t-8 -16.5t-4.5 -24.5t-1.5 -28v-34v-114 q0 -34 1 -49.5t5 -34.5t14.5 -26.5t27.5 -7.5q15 0 24.5 6.5t14.5 15t7.5 26.5t3 30t0.5 36v2z" />
<glyph unicode="d" horiz-adv-x="408" d="M245 715h117l-1 -73v-569l1 -73h-110v43h-5q-36 -28 -59.5 -39.5t-50.5 -11.5q-25 0 -43.5 7.5t-29 24.5t-17.5 32.5t-9.5 43.5t-3 45t-0.5 48v128q0 31 0.5 48t3.5 47t10 48t18 37t30.5 28t45.5 9q45 0 104 -46v150zM200 440q-51 0 -51 -97v-167q0 -17 1 -29t5 -27 t14 -22.5t25 -7.5q18 0 52 18v320q-29 12 -46 12z" />
<glyph unicode="e" horiz-adv-x="388" d="M358 242h-211v-34v-35.5t1.5 -28.5t4.5 -24t8.5 -15.5t14 -11.5t20.5 -3q14 0 24 6.5t15 14.5t7.5 23t3 23.5t0.5 24.5v2h112v-2q0 -110 -54 -158q-37 -34 -110 -34q-72 0 -109 34q-31 28 -42 76.5t-11 129.5v70q0 80 11 128.5t42 76.5q38 35 110 35q71 0 109 -35 q31 -28 42.5 -76.5t11.5 -128.5v-58zM147 330v-3h96v3q0 30 -1 44.5t-5 32.5t-14.5 25.5t-28.5 7.5q-17 0 -27 -7t-14 -25t-5 -32.5t-1 -45.5z" />
<glyph unicode="f" horiz-adv-x="275" d="M10 432v98h66v50q0 139 137 139q25 0 63 -5v-99q-24 2 -38 2q-24 0 -35.5 -10.5t-11.5 -39.5v-37h85v-98h-85v-359l1 -73h-117l1 73v359h-66z" />
<glyph unicode="g" horiz-adv-x="431" d="M199 136q-21 0 -29 2q-26 -19 -26 -34q0 -17 45 -19l83 -4q67 -3 107 -31.5t40 -81.5q0 -65 -61 -102.5t-164 -37.5q-75 0 -125.5 21t-50.5 63q0 56 85 83v4q-61 21 -61 63q0 25 17 52t44 46v4q-64 41 -64 159v30q0 103 53 151q39 36 103 36q83 0 122 -55h5 q17 34 43.5 46t49.5 5v-120q-50 5 -65 -6q6 -24 6 -61v-26q0 -104 -50 -151q-39 -36 -107 -36zM149 359v-42q0 -21 1 -31.5t5 -25t15 -21t29 -6.5q22 0 33 14t12.5 28t1.5 42v43q0 27 -1.5 41t-12.5 28t-33 14q-18 0 -29 -6.5t-15 -21t-5 -25t-1 -31.5zM314 -51q0 27 -58 30 l-83 4q-43 -21 -43 -40q0 -30 87 -30q97 0 97 36z" />
<glyph unicode="h" horiz-adv-x="412" d="M47 642l-1 73h117l-1 -73v-169h1q36 34 63 49.5t58 15.5q41 0 63 -27t22 -76v-362l1 -73h-117l1 73v315q0 19 -1 26.5t-7 14t-19 6.5q-21 0 -65 -29v-333l1 -73h-117l1 73v569z" />
<glyph unicode="i" horiz-adv-x="209" d="M46 530h117l-1 -73v-384l1 -73h-117l1 73v384zM47 615v100h115v-100h-115z" />
<glyph unicode="j" horiz-adv-x="209" d="M47 615v100h115v-100h-115zM-40 -157v103q33 -3 38 -3q26 0 37.5 13.5t11.5 45.5v455l-1 73h117l-1 -73v-473q0 -72 -36.5 -110t-102.5 -38q-35 0 -63 7z" />
<glyph unicode="k" horiz-adv-x="395" d="M258 530h125l-105 -189l110 -341h-121l-71 232l-34 -60v-99l1 -73h-117l1 73v569l-1 73h117l-1 -73v-201q0 -63 -2 -91h5q8 17 36 72z" />
<glyph unicode="l" horiz-adv-x="209" d="M46 715h117l-1 -73v-569l1 -73h-117l1 73v569z" />
<glyph unicode="m" horiz-adv-x="619" d="M162 406v-333l1 -73h-117l1 73v384l-1 73h110v-60h1q74 68 126 68q63 0 81 -67h1q39 35 67 51t61 16q45 0 64 -31t19 -92v-342l1 -73h-117l1 73v315q0 17 -1 25t-7.5 15t-19.5 7q-23 0 -64 -29v-333l1 -73h-117l1 73v315q0 17 -1 25t-7.5 15t-19.5 7q-20 0 -64 -29z" />
<glyph unicode="n" horiz-adv-x="412" d="M254 73v315q0 18 -1 25.5t-7 14.5t-19 7q-21 0 -65 -29v-333l1 -73h-117l1 73v384l-1 73h110v-60h1q39 36 67.5 52t59.5 16q41 0 63 -27t22 -76v-362l1 -73h-117z" />
<glyph unicode="o" horiz-adv-x="390" d="M195 -10q-72 0 -110 35q-31 28 -42 76.5t-11 128.5v70q0 80 11 128.5t42 76.5q40 35 110 35q71 0 109 -35q31 -28 42.5 -76.5t11.5 -128.5v-70q0 -79 -11.5 -127.5t-42.5 -77.5q-36 -35 -109 -35zM195 90q17 0 27.5 7t14.5 26t5 34.5t1 50.5v114q0 35 -1 50.5t-5 34.5 t-14.5 26t-27.5 7t-27.5 -7t-14.5 -26t-5 -34.5t-1 -50.5v-114q0 -35 1 -50.5t5 -34.5t14.5 -26t27.5 -7z" />
<glyph unicode="p" horiz-adv-x="408" d="M47 457l-1 73h110v-43h5q36 28 60 39.5t51 11.5q25 0 43 -7.5t29 -24.5t17.5 -33t9 -44.5t3 -46t0.5 -50.5v-123q0 -27 -0.5 -41.5t-2.5 -41t-5.5 -42t-11.5 -35.5t-19.5 -30.5t-29 -18.5t-39.5 -8q-45 0 -104 46v-129l1 -73h-117l1 73v548zM213 440q-17 0 -51 -18v-320 q29 -12 46 -12q51 0 51 97v167q0 86 -46 86z" />
<glyph unicode="q" horiz-adv-x="408" d="M362 530l-1 -73v-548l1 -73h-117l1 73v129q-59 -46 -104 -46q-22 0 -39.5 8t-29 18.5t-19.5 30.5t-11.5 35.5t-5.5 42t-2.5 41t-0.5 41.5v123q0 33 0.5 50.5t3 46t9 44.5t17.5 33t29 24.5t43 7.5q27 0 51 -11.5t60 -39.5h5v43h110zM195 440q-46 0 -46 -86v-167 q0 -97 51 -97q17 0 46 12v320q-34 18 -51 18z" />
<glyph unicode="r" horiz-adv-x="294" d="M270 538q8 0 16 -2v-127q-16 3 -35 3q-89 0 -89 -83v-256l1 -73h-117l1 73v386l-1 71h108v-76h5q24 39 54 61.5t57 22.5z" />
<glyph unicode="s" horiz-adv-x="372" d="M14 150l108 22q16 -84 72 -84q22 0 33.5 12.5t11.5 31.5q0 25 -18 44t-56 43l-49 28q-90 56 -90 151q0 56 43 99t117 43q135 0 162 -136l-106 -22q-15 60 -57 60q-21 0 -34 -11.5t-13 -29.5q0 -20 13.5 -35t47.5 -37l49 -28q106 -64 106 -162q0 -67 -43 -108.5 t-121 -41.5q-64 0 -113.5 40.5t-62.5 120.5z" />
<glyph unicode="t" horiz-adv-x="290" d="M9 432v98h67l5 149h109v-149h85v-98h-85v-278q0 -29 12 -40.5t37 -11.5q12 0 36 2v-104q-40 -5 -65 -5q-69 0 -102 33t-33 106v298h-66z" />
<glyph unicode="u" horiz-adv-x="412" d="M158 457v-315q0 -18 1 -25.5t7 -14.5t19 -7q21 0 65 29v333l-1 73h117l-1 -73v-384l1 -73h-110v60h-1q-39 -36 -67.5 -52t-59.5 -16q-41 0 -63 27t-22 76v362l-1 73h117z" />
<glyph unicode="v" horiz-adv-x="362" d="M116 530l51 -240q6 -30 13 -80h4q2 22 12 80l50 240h114l-124 -530h-111l-123 530h114z" />
<glyph unicode="w" horiz-adv-x="554" d="M116 0l-112 530h109l45 -243q0 -2 11 -69h4q9 62 12 74l49 238h87l50 -238q3 -12 12 -74h4q4 40 10 69l45 243h108l-112 -530h-109l-39 204q-8 43 -11 75h-4q0 -2 -4.5 -32t-6.5 -43l-39 -204h-109z" />
<glyph unicode="x" horiz-adv-x="382" d="M192 168h-4l-63 -168h-121l120 276l-108 254h119l54 -144h4l55 144h118l-109 -254l120 -276h-124z" />
<glyph unicode="y" horiz-adv-x="362" d="M118 34l-117 496h115l52 -250l12 -70h4q4 24 13 71l50 249h113l-136 -582q-27 -112 -148 -112q-25 0 -65 5v104q26 -2 37 -2q91 0 70 91z" />
<glyph unicode="z" horiz-adv-x="354" d="M327 103v-103h-305v91l180 336h-169v103h296v-91l-181 -336h179z" />
<glyph unicode="{" horiz-adv-x="319" d="M105 447v131q0 74 48 105.5t120 31.5h25v-78h-3q-43 0 -55 -13t-12 -45v-142q0 -55 -31 -90t-75 -38v-12q44 -4 75 -39t31 -90v-169q0 -36 12 -46.5t55 -10.5h3v-80h-25q-73 0 -120.5 31.5t-47.5 106.5v158q0 98 -65 98h-28v93h28q65 0 65 98z" />
<glyph unicode="|" horiz-adv-x="393" d="M133 840h127v-1000h-127v1000z" />
<glyph unicode="}" horiz-adv-x="319" d="M214 578v-131q0 -98 65 -98h28v-93h-28q-65 0 -65 -98v-158q0 -75 -47.5 -106.5t-120.5 -31.5h-25v80h3q43 0 55 10.5t12 46.5v169q0 55 31 90t75 39v12q-44 3 -75 38t-31 90v142q0 32 -12 45t-55 13h-3v78h25q72 0 120 -31.5t48 -105.5z" />
<glyph unicode="~" horiz-adv-x="535" d="M40 210q0 98 39 143.5t103 45.5q58 0 106 -47l24 -21q28 -20 41 -20q36 0 36 77h106q0 -98 -39.5 -144t-105.5 -46q-51 0 -103 47l-23 21l-6 6q-7 5 -10.5 7t-11 5t-14.5 3q-37 0 -37 -77h-105z" />
<glyph unicode="&#xa1;" horiz-adv-x="211" d="M46 414v116h118v-116h-118zM39 -158l26 478h81l26 -478h-133z" />
<glyph unicode="&#xa2;" horiz-adv-x="395" d="M160 -104h-89l27 120q-39 30 -50.5 82.5t-11.5 131.5v70q0 159 53 206q38 34 109 34q18 0 27 -1l18 72h89l-27 -103q53 -43 53 -171v-2h-110v2q0 27 -1 40.5t-5 30.5t-14.5 24.5t-28.5 7.5q-12 0 -20.5 -3t-13.5 -12t-8 -16.5t-4.5 -24.5t-1.5 -28v-34v-114 q0 -34 1 -49.5t5 -34.5t14.5 -26.5t27.5 -7.5q15 0 24.5 6.5t14.5 15t7.5 26.5t3 30t0.5 36v2h112v-2q0 -132 -52 -179q-38 -35 -104 -35q-16 0 -25 1z" />
<glyph unicode="&#xa3;" horiz-adv-x="488" d="M32 320v90h73q-26 80 -26 136q0 90 48.5 135.5t123.5 45.5q84 0 130 -50.5t51 -124.5l-115 -16q-5 39 -17.5 62.5t-44.5 23.5q-55 0 -55 -75q0 -48 29 -137h148v-90h-119q10 -38 10 -68q0 -66 -23 -121q17 -30 49 -30q31 0 45.5 26t14.5 85h116q0 -99 -49 -160.5 t-125 -61.5q-74 0 -112 55q-59 -48 -152 -45v117q57 0 86.5 22.5t29.5 86.5q0 42 -15 94h-101z" />
<glyph unicode="&#xa4;" horiz-adv-x="457" d="M229 78q-31 0 -57 6l-27 -84h-110l50 140q-41 55 -41 215v5q0 169 49 224l-49 131h109l28 -83q25 5 48 5q27 0 46 -4l29 82h109l-49 -129q50 -53 50 -226v-5q0 -161 -42 -217l50 -138h-110l-28 84q-24 -6 -55 -6zM169 393v-71q0 -31 0.5 -45t3.5 -34.5t9 -29t17.5 -15 t29.5 -6.5t29.5 6.5t17.5 15t9 29t3.5 34.5t0.5 45v71q0 31 -0.5 45t-3.5 34.5t-9 29t-17.5 15t-29.5 6.5t-29.5 -6.5t-17.5 -15t-9 -29t-3.5 -34.5t-0.5 -45z" />
<glyph unicode="&#xa5;" horiz-adv-x="494" d="M31 392v79h90l-85 244h129l82 -258h4l82 258h126l-85 -244h89v-79h-117l-16 -47h133v-79h-151v-193l1 -73h-130l1 73v193h-153v79h134l-16 47h-118z" />
<glyph unicode="&#xa6;" horiz-adv-x="393" d="M133 766h127v-351h-127v351zM133 266h127v-351h-127v351z" />
<glyph unicode="&#xa7;" horiz-adv-x="533" d="M518 232q0 -109 -112 -143q37 -47 37 -103q0 -69 -48 -113.5t-127 -44.5q-77 0 -123.5 42.5t-57.5 120.5l111 15q14 -73 72 -73q26 0 41.5 14t15.5 34q0 33 -67 77l-124 79q-121 77 -121 186q0 110 111 142q-36 48 -36 104q0 69 48 113.5t127 44.5q77 0 123.5 -42.5 t57.5 -120.5l-111 -15q-14 73 -72 73q-26 0 -41.5 -14t-15.5 -34q0 -33 67 -77l124 -79q121 -77 121 -186zM313 331l-129 80q-53 -16 -53 -72q0 -59 89 -115l128 -81q54 17 54 73q0 59 -89 115z" />
<glyph unicode="&#xa8;" horiz-adv-x="341" d="M194 615v100h114v-100h-114zM31 615v100h114v-100h-114z" />
<glyph unicode="&#xa9;" horiz-adv-x="822" d="M14 357q0 187 111 314.5t286 127.5q116 0 207.5 -59.5t140.5 -160t49 -222.5t-49 -222.5t-140.5 -160t-207.5 -59.5q-175 0 -286 127.5t-111 314.5zM107 357q0 -153 85 -256.5t219 -103.5t219 103.5t85 256.5q0 152 -85 256t-219 104t-219 -104t-85 -256zM410 65 q-70 0 -112 34q-54 44 -54 181v156q0 135 54 180q41 35 109 35q71 0 113 -34q55 -44 55 -168v-3h-106v3q0 23 -0.5 34.5t-3.5 28.5t-9 25t-17.5 14t-28.5 6t-29 -6t-18 -14t-9 -24t-3.5 -26.5t-0.5 -30.5v-196q0 -26 1 -39t6 -30t18.5 -24.5t34.5 -7.5q22 0 35 7.5 t18.5 26.5t6.5 34.5t1 48.5v5h106v-2q0 -135 -56 -180q-42 -34 -111 -34z" />
<glyph unicode="&#xaa;" horiz-adv-x="341" d="M24 533q10 138 152 138q134 0 134 -138v-227q0 -9 6 -54h-109l-4 38h-5q-54 -43 -96 -43q-41 0 -66 27t-25 73q0 99 118 149q14 6 73 27v21q0 41 -32 41q-35 0 -37 -52h-109zM152 339q23 0 50 23v89q-79 -30 -79 -79q0 -33 29 -33z" />
<glyph unicode="&#xab;" horiz-adv-x="487" d="M241 131h-91l-131 161v24l129 160h93l-100 -173zM453 131h-91l-131 161v24l128 160h94l-100 -173z" />
<glyph unicode="&#xac;" horiz-adv-x="535" d="M19 469h482v-339h-116v231h-366v108z" />
<glyph unicode="&#xad;" horiz-adv-x="281" d="M43 240v118h195v-118h-195z" />
<glyph unicode="&#xae;" horiz-adv-x="382" d="M22 565q0 72 45 120t124 48q78 0 123.5 -48t45.5 -120t-45 -120t-124 -48t-124 47.5t-45 120.5zM71 565q0 -56 31.5 -92.5t88.5 -36.5q56 0 88 36.5t32 92.5q0 55 -32 91.5t-88 36.5q-57 0 -88.5 -36t-31.5 -92zM192 539h-18v-67h-56v191h76q77 0 77 -64v-1 q0 -33 -27 -48l29 -78h-57zM174 617v-33h15q27 0 27 16v1q0 16 -25 16h-17z" />
<glyph unicode="&#xaf;" horiz-adv-x="341" d="M286 609h-231v89h231v-89z" />
<glyph unicode="&#xb0;" horiz-adv-x="358" d="M178 359q-66 0 -104 32q-45 35 -45 146v7q0 59 10 92.5t35 53.5q38 32 104 32t104 -32q45 -38 45 -146v-7q0 -109 -45 -146q-38 -32 -104 -32zM178 448q18 0 26.5 11.5t10 23t1.5 33.5v49q0 17 -0.5 25.5t-4 20t-11.5 17t-22 5.5q-18 0 -26.5 -11.5t-10 -23t-1.5 -33.5 v-49q0 -17 0.5 -25.5t4 -20t11.5 -17t22 -5.5z" />
<glyph unicode="&#xb1;" horiz-adv-x="535" d="M40 311v108h170v163h115v-163h168v-108h-168v-166h-115v166h-170zM40 0v107h453v-107h-453z" />
<glyph unicode="&#xb2;" horiz-adv-x="330" d="M310 595v-1q0 -75 -103 -164l-59 -50h158v-94h-288v87l88 85q34 33 50 50t30.5 41.5t14.5 46.5v1q0 37 -33 37q-40 0 -40 -62v-3h-106v1q0 76 39.5 114t109.5 38q69 0 104 -34.5t35 -92.5z" />
<glyph unicode="&#xb3;" horiz-adv-x="329" d="M15 429h107v-1q0 -19 1 -29.5t10.5 -22t27.5 -11.5q38 0 38 50v3q0 43 -52 43h-28v93h22q30 0 41 8.5t11 32.5v3q0 38 -33 38q-36 0 -36 -57v-1h-105v1q0 73 46 112q37 31 97 31q58 0 96 -29q42 -33 42 -89v-3q0 -36 -14.5 -55t-46.5 -33v-2q70 -22 70 -95v-3 q0 -71 -43 -105q-37 -29 -106 -29q-67 0 -102 29q-43 36 -43 120v1z" />
<glyph unicode="&#xb4;" horiz-adv-x="341" d="M181 587h-85l77 128h141z" />
<glyph unicode="&#xb5;" horiz-adv-x="424" d="M50 -91v548l-1 73h117l-1 -73v-315q0 -18 1 -25.5t7 -14.5t19 -7q21 0 65 29v333l-1 73h117l-1 -73v-384l1 -73h-110v60h-1q-39 -36 -57.5 -48t-41.5 -12q-9 0 -13 3l-1 -1q11 -18 11 -50v-43l1 -73h-112z" />
<glyph unicode="&#xb6;" horiz-adv-x="670" d="M215 715h402l-1 -73v-733l1 -73h-129l1 73v694h-92v-694l1 -73h-129l1 73v378h-55q-111 0 -155 57t-44 156v2q0 99 44 156t155 57zM232 399h38v204h-38q-48 0 -66.5 -26.5t-18.5 -74.5v-2q0 -48 18.5 -74.5t66.5 -26.5z" />
<glyph unicode="&#xb7;" horiz-adv-x="239" d="M36 376h167v-155h-167v155z" />
<glyph unicode="&#xb8;" horiz-adv-x="341" d="M149 9h74l-11 -49q71 -8 71 -62q0 -73 -135 -73q-45 0 -81 12l6 56q36 -11 71 -11q42 0 42 20q0 17 -29 17h-27z" />
<glyph unicode="&#xb9;" horiz-adv-x="242" d="M82 576h-76v60q49 17 80 39t39 42h70v-431h-113v290z" />
<glyph unicode="&#xba;" horiz-adv-x="330" d="M165 244q-64 0 -99 30q-27 23 -36 60.5t-9 96.5v52q0 60 9 97t36 61q35 30 99 30q65 0 100 -30q45 -40 45 -158v-52q0 -118 -45 -157q-35 -30 -100 -30zM165 335q18 0 26 10.5t9.5 23t1.5 39.5v99q0 27 -1.5 39.5t-9.5 23t-26 10.5q-13 0 -20.5 -4.5t-11 -16.5t-4 -21.5 t-0.5 -30.5v-99q0 -21 0.5 -30.5t4 -21.5t11 -16.5t20.5 -4.5z" />
<glyph unicode="&#xbb;" horiz-adv-x="487" d="M337 131h-91l99 172l-99 173h93l129 -160v-24zM125 131h-91l100 172l-100 173h93l130 -160v-24z" />
<glyph unicode="&#xbc;" horiz-adv-x="721" d="M82 576h-76v60q49 17 80 39t39 42h70v-431h-113v290zM164 0l213 715h99l-215 -715h-97zM545 0v79h-164v97l153 253h118v-260h58v-90h-58v-79h-107zM473 169h72v34q0 54 4 90h-3q-8 -21 -28 -51z" />
<glyph unicode="&#xbd;" horiz-adv-x="730" d="M82 576h-76v60q49 17 80 39t39 42h70v-431h-113v290zM164 0l213 715h99l-215 -715h-97zM710 309v-1q0 -75 -103 -164l-59 -50h158v-94h-288v87l88 85q34 33 50 50t30.5 41.5t14.5 46.5v1q0 37 -33 37q-40 0 -40 -62v-3h-106v1q0 76 39.5 114t109.5 38q69 0 104 -34.5 t35 -92.5z" />
<glyph unicode="&#xbe;" horiz-adv-x="808" d="M15 429h107v-1q0 -19 1 -29.5t10.5 -22t27.5 -11.5q38 0 38 50v3q0 43 -52 43h-28v93h22q30 0 41 8.5t11 32.5v3q0 38 -33 38q-36 0 -36 -57v-1h-105v1q0 73 46 112q37 31 97 31q58 0 96 -29q42 -33 42 -89v-3q0 -36 -14.5 -55t-46.5 -33v-2q70 -22 70 -95v-3 q0 -71 -43 -105q-37 -29 -106 -29q-67 0 -102 29q-43 36 -43 120v1zM251 0l213 715h99l-215 -715h-97zM632 0v79h-164v97l153 253h118v-260h58v-90h-58v-79h-107zM560 169h72v34q0 54 4 90h-3q-8 -21 -28 -51z" />
<glyph unicode="&#xbf;" horiz-adv-x="369" d="M253 530v-116h-118v116h118zM142 319h104v-43q0 -41 -10.5 -80.5t-21 -61t-29.5 -53.5q-4 -7 -16.5 -28t-17 -29.5t-9.5 -23t-5 -26.5q0 -18 12 -28.5t33 -10.5q40 0 72 71l101 -39q-54 -139 -180 -139q-73 0 -115 40t-42 105q0 66 58 146q22 31 32.5 47t22 48.5 t11.5 66.5v38z" />
<glyph unicode="&#xc0;" horiz-adv-x="444" d="M160 146l-23 -146h-131l129 715h174l129 -715h-129l-24 146h-125zM207 449l-29 -188h89l-30 188q-8 54 -12 105h-6q-1 -32 -12 -105zM297 756h-86l-133 128h143z" />
<glyph unicode="&#xc1;" horiz-adv-x="444" d="M160 146l-23 -146h-131l129 715h174l129 -715h-129l-24 146h-125zM207 449l-29 -188h89l-30 188q-8 54 -12 105h-6q-1 -32 -12 -105zM234 756h-85l77 128h141z" />
<glyph unicode="&#xc2;" horiz-adv-x="444" d="M160 146l-23 -146h-131l129 715h174l129 -715h-129l-24 146h-125zM207 449l-29 -188h89l-30 188q-8 54 -12 105h-6q-1 -32 -12 -105zM359 756h-69l-66 55l-67 -55h-70l81 128h108z" />
<glyph unicode="&#xc3;" horiz-adv-x="444" d="M160 146l-23 -146h-131l129 715h174l129 -715h-129l-24 146h-125zM207 449l-29 -188h89l-30 188q-8 54 -12 105h-6q-1 -32 -12 -105zM76 752q0 136 84 136q33 0 72 -27q32 -21 44 -21q25 0 25 44h65q0 -70 -24.5 -103t-61.5 -33q-29 0 -65 23q-5 3 -13.5 9t-13 9t-11 5.5 t-11.5 2.5q-27 0 -27 -45h-63z" />
<glyph unicode="&#xc4;" horiz-adv-x="444" d="M160 146l-23 -146h-131l129 715h174l129 -715h-129l-24 146h-125zM207 449l-29 -188h89l-30 188q-8 54 -12 105h-6q-1 -32 -12 -105zM247 762v100h114v-100h-114zM84 762v100h114v-100h-114z" />
<glyph unicode="&#xc5;" horiz-adv-x="444" d="M160 146l-23 -146h-131l129 715h174l129 -715h-129l-24 146h-125zM207 449l-29 -188h89l-30 188q-8 54 -12 105h-6q-1 -32 -12 -105zM333 838q0 -41 -28.5 -69t-80.5 -28t-81 28t-29 69q0 42 29 71.5t81 29.5q51 0 80 -29.5t29 -71.5zM268 838q0 19 -12 32.5t-32 13.5 q-22 0 -34.5 -13.5t-12.5 -32.5q0 -17 13 -29.5t34 -12.5q20 0 32 12.5t12 29.5z" />
<glyph unicode="&#xc6;" horiz-adv-x="666" d="M171 146l-46 -146h-128l242 715h395v-112h-196v-173h154v-114h-154v-204h200v-112h-328l1 73v73h-140zM307 603q-15 -80 -36 -147l-63 -195h103v342h-4z" />
<glyph unicode="&#xc7;" horiz-adv-x="458" d="M365 29q-33 -29 -87 -38l-7 -31q71 -8 71 -62q0 -73 -135 -73q-45 0 -81 12l6 56q36 -11 71 -11q42 0 42 20q0 17 -29 17h-27l15 71q-59 8 -95 39q-32 28 -47 80t-15 156v185q0 104 15 156t47 80q47 41 128 41t127 -41q32 -28 47 -78t15 -142v-2h-129v2q0 41 -1 59.5 t-6.5 41.5t-18 32t-34.5 9q-15 0 -25.5 -4t-17 -14t-10.5 -19t-5.5 -27.5t-2 -30t-0.5 -35.5v-241q0 -37 1 -54t6.5 -38t18.5 -29.5t35 -8.5q15 0 26 4t17.5 15t10.5 20.5t5.5 32.5t2 38t0.5 49v1h129v-1q0 -104 -15.5 -156.5t-47.5 -80.5z" />
<glyph unicode="&#xc8;" horiz-adv-x="409" d="M335 316h-154v-204h200v-112h-328l1 73v569l-1 73h324v-112h-196v-173h154v-114zM290 756h-86l-133 128h143z" />
<glyph unicode="&#xc9;" horiz-adv-x="409" d="M335 316h-154v-204h200v-112h-328l1 73v569l-1 73h324v-112h-196v-173h154v-114zM227 756h-85l77 128h141z" />
<glyph unicode="&#xca;" horiz-adv-x="409" d="M335 316h-154v-204h200v-112h-328l1 73v569l-1 73h324v-112h-196v-173h154v-114zM352 756h-69l-66 55l-67 -55h-70l81 128h108z" />
<glyph unicode="&#xcb;" horiz-adv-x="409" d="M335 316h-154v-204h200v-112h-328l1 73v569l-1 73h324v-112h-196v-173h154v-114zM240 762v100h114v-100h-114zM77 762v100h114v-100h-114z" />
<glyph unicode="&#xcc;" horiz-adv-x="235" d="M53 715h129l-1 -73v-569l1 -73h-129l1 73v569zM190 756h-86l-133 128h143z" />
<glyph unicode="&#xcd;" horiz-adv-x="235" d="M53 715h129l-1 -73v-569l1 -73h-129l1 73v569zM127 756h-85l77 128h141z" />
<glyph unicode="&#xce;" horiz-adv-x="235" d="M53 715h129l-1 -73v-569l1 -73h-129l1 73v569zM252 756h-69l-66 55l-67 -55h-70l81 128h108z" />
<glyph unicode="&#xcf;" horiz-adv-x="235" d="M53 715h129l-1 -73v-569l1 -73h-129l1 73v569zM140 762v100h114v-100h-114zM-23 762v100h114v-100h-114z" />
<glyph unicode="&#xd0;" horiz-adv-x="489" d="M256 715q76 0 123 -41q33 -28 47.5 -73.5t14.5 -129.5v-227q0 -84 -14.5 -129.5t-47.5 -73.5q-47 -41 -123 -41h-192l1 73v243h-57v114h57v212l-1 73h192zM236 603h-44v-173h59v-114h-59v-204h44q76 0 76 97v297q0 97 -76 97z" />
<glyph unicode="&#xd1;" horiz-adv-x="520" d="M53 715h132l129 -319q17 -43 30 -88h4q-5 65 -5 93v241l-1 73h125l-1 -73v-569l1 -73h-116l-143 361q-15 34 -32 88h-4q5 -65 5 -93v-283l1 -73h-125l1 73v569zM112 752q0 136 84 136q33 0 72 -27q32 -21 44 -21q25 0 25 44h65q0 -70 -24.5 -103t-61.5 -33q-29 0 -65 23 q-5 3 -13.5 9t-13 9t-11 5.5t-11.5 2.5q-27 0 -27 -45h-63z" />
<glyph unicode="&#xd2;" d="M236 -12q-80 0 -127 41q-32 28 -47 80t-15 156v185q0 104 15 156t47 80q47 41 127 41q81 0 128 -41q32 -28 47 -80t15 -156v-185q0 -104 -15 -156t-47 -80q-47 -41 -128 -41zM236 107q18 0 30 7t18 16.5t9 29.5t3.5 34t0.5 43v241q0 29 -0.5 43t-3.5 34t-9 29.5t-18 16.5 t-30 7q-17 0 -29 -7t-18 -16.5t-9 -29.5t-3.5 -34t-0.5 -43v-241q0 -29 0.5 -43t3.5 -34t9 -29.5t18 -16.5t29 -7zM310 756h-86l-133 128h143z" />
<glyph unicode="&#xd3;" d="M236 -12q-80 0 -127 41q-32 28 -47 80t-15 156v185q0 104 15 156t47 80q47 41 127 41q81 0 128 -41q32 -28 47 -80t15 -156v-185q0 -104 -15 -156t-47 -80q-47 -41 -128 -41zM236 107q18 0 30 7t18 16.5t9 29.5t3.5 34t0.5 43v241q0 29 -0.5 43t-3.5 34t-9 29.5t-18 16.5 t-30 7q-17 0 -29 -7t-18 -16.5t-9 -29.5t-3.5 -34t-0.5 -43v-241q0 -29 0.5 -43t3.5 -34t9 -29.5t18 -16.5t29 -7zM247 756h-85l77 128h141z" />
<glyph unicode="&#xd4;" d="M236 -12q-80 0 -127 41q-32 28 -47 80t-15 156v185q0 104 15 156t47 80q47 41 127 41q81 0 128 -41q32 -28 47 -80t15 -156v-185q0 -104 -15 -156t-47 -80q-47 -41 -128 -41zM236 107q18 0 30 7t18 16.5t9 29.5t3.5 34t0.5 43v241q0 29 -0.5 43t-3.5 34t-9 29.5t-18 16.5 t-30 7q-17 0 -29 -7t-18 -16.5t-9 -29.5t-3.5 -34t-0.5 -43v-241q0 -29 0.5 -43t3.5 -34t9 -29.5t18 -16.5t29 -7zM372 756h-69l-66 55l-67 -55h-70l81 128h108z" />
<glyph unicode="&#xd5;" d="M236 -12q-80 0 -127 41q-32 28 -47 80t-15 156v185q0 104 15 156t47 80q47 41 127 41q81 0 128 -41q32 -28 47 -80t15 -156v-185q0 -104 -15 -156t-47 -80q-47 -41 -128 -41zM236 107q18 0 30 7t18 16.5t9 29.5t3.5 34t0.5 43v241q0 29 -0.5 43t-3.5 34t-9 29.5t-18 16.5 t-30 7q-17 0 -29 -7t-18 -16.5t-9 -29.5t-3.5 -34t-0.5 -43v-241q0 -29 0.5 -43t3.5 -34t9 -29.5t18 -16.5t29 -7zM89 752q0 136 84 136q33 0 72 -27q32 -21 44 -21q25 0 25 44h65q0 -70 -24.5 -103t-61.5 -33q-29 0 -65 23q-5 3 -13.5 9t-13 9t-11 5.5t-11.5 2.5 q-27 0 -27 -45h-63z" />
<glyph unicode="&#xd6;" d="M236 -12q-80 0 -127 41q-32 28 -47 80t-15 156v185q0 104 15 156t47 80q47 41 127 41q81 0 128 -41q32 -28 47 -80t15 -156v-185q0 -104 -15 -156t-47 -80q-47 -41 -128 -41zM236 107q18 0 30 7t18 16.5t9 29.5t3.5 34t0.5 43v241q0 29 -0.5 43t-3.5 34t-9 29.5t-18 16.5 t-30 7q-17 0 -29 -7t-18 -16.5t-9 -29.5t-3.5 -34t-0.5 -43v-241q0 -29 0.5 -43t3.5 -34t9 -29.5t18 -16.5t29 -7zM260 762v100h114v-100h-114zM97 762v100h114v-100h-114z" />
<glyph unicode="&#xd7;" horiz-adv-x="535" d="M95 49l-78 78l173 171l-174 173l80 80l173 -172l171 171l78 -77l-171 -172l173 -173l-80 -80l-172 173z" />
<glyph unicode="&#xd8;" d="M184 -75h-89l22 97q-37 31 -53.5 84.5t-16.5 158.5v185q0 104 15 156t47 80q47 41 127 41q28 0 48 -4l11 46h90l-20 -84q31 -28 46 -80.5t15 -154.5v-185q0 -104 -15 -156t-47 -80q-47 -41 -128 -41q-20 0 -36 3zM175 480v-192l121 254q-3 35 -16.5 53t-43.5 18 q-18 0 -30 -7.5t-18 -16.5t-9 -30t-3.5 -35t-0.5 -44zM236 102q15 0 26 4t17.5 14t10.5 19t5.5 28t2 31t0.5 37v171l-120 -251q10 -53 58 -53z" />
<glyph unicode="&#xd9;" d="M296 715h129l-1 -73v-462q0 -91 -50 -141.5t-138 -50.5t-137.5 50t-49.5 142v462l-1 73h129l-1 -73v-448q0 -44 13.5 -65.5t46.5 -21.5t47 21.5t14 65.5v448zM311 756h-86l-133 128h143z" />
<glyph unicode="&#xda;" d="M296 715h129l-1 -73v-462q0 -91 -50 -141.5t-138 -50.5t-137.5 50t-49.5 142v462l-1 73h129l-1 -73v-448q0 -44 13.5 -65.5t46.5 -21.5t47 21.5t14 65.5v448zM248 756h-85l77 128h141z" />
<glyph unicode="&#xdb;" d="M296 715h129l-1 -73v-462q0 -91 -50 -141.5t-138 -50.5t-137.5 50t-49.5 142v462l-1 73h129l-1 -73v-448q0 -44 13.5 -65.5t46.5 -21.5t47 21.5t14 65.5v448zM373 756h-69l-66 55l-67 -55h-70l81 128h108z" />
<glyph unicode="&#xdc;" d="M296 715h129l-1 -73v-462q0 -91 -50 -141.5t-138 -50.5t-137.5 50t-49.5 142v462l-1 73h129l-1 -73v-448q0 -44 13.5 -65.5t46.5 -21.5t47 21.5t14 65.5v448zM261 762v100h114v-100h-114zM98 762v100h114v-100h-114z" />
<glyph unicode="&#xdd;" horiz-adv-x="421" d="M129 715l82 -258h4l82 258h126l-147 -422v-220l1 -73h-130l1 73v220l-148 422h129zM224 756h-85l77 128h141z" />
<glyph unicode="&#xde;" horiz-adv-x="457" d="M181 240h36q48 0 66 26.5t18 75.5v42q0 48 -18 74.5t-66 26.5h-36v-245zM54 642l-1 73h129l-1 -73v-45h52q111 0 155 -57t44 -156v-42q0 -100 -44 -157t-155 -57h-52v-55l1 -73h-129l1 73v569z" />
<glyph unicode="&#xdf;" horiz-adv-x="468" d="M205 341v98h5q33 0 52.5 24t19.5 71q0 85 -65 85q-55 0 -55 -64v-482l1 -73h-117l1 73v496q0 73 46.5 111.5t120.5 38.5q87 0 133.5 -50t46.5 -123q0 -54 -24.5 -90.5t-52.5 -42.5v-6q56 -22 91.5 -77t35.5 -146q0 -189 -159 -189q-45 0 -80 11v97q30 -10 62 -10 q38 0 50 21t12 65q0 87 -27.5 120t-79.5 40z" />
<glyph unicode="&#xe0;" horiz-adv-x="402" d="M35 370q5 80 47 125t123 45q155 0 155 -168v-299q0 -29 7 -73h-114q-4 19 -6 53h-5q-36 -32 -63 -45.5t-62 -13.5q-43 0 -71 33.5t-28 88.5q0 66 31.5 112.5t108.5 82.5q33 15 87 36v36q0 61 -44 61q-46 0 -50 -74h-116zM177 100q33 0 68 36v136q-24 -11 -39.5 -20.5 t-32.5 -24.5t-25.5 -35t-8.5 -45q0 -47 38 -47zM278 587h-86l-133 128h143z" />
<glyph unicode="&#xe1;" horiz-adv-x="402" d="M35 370q5 80 47 125t123 45q155 0 155 -168v-299q0 -29 7 -73h-114q-4 19 -6 53h-5q-36 -32 -63 -45.5t-62 -13.5q-43 0 -71 33.5t-28 88.5q0 66 31.5 112.5t108.5 82.5q33 15 87 36v36q0 61 -44 61q-46 0 -50 -74h-116zM177 100q33 0 68 36v136q-24 -11 -39.5 -20.5 t-32.5 -24.5t-25.5 -35t-8.5 -45q0 -47 38 -47zM215 587h-85l77 128h141z" />
<glyph unicode="&#xe2;" horiz-adv-x="402" d="M35 370q5 80 47 125t123 45q155 0 155 -168v-299q0 -29 7 -73h-114q-4 19 -6 53h-5q-36 -32 -63 -45.5t-62 -13.5q-43 0 -71 33.5t-28 88.5q0 66 31.5 112.5t108.5 82.5q33 15 87 36v36q0 61 -44 61q-46 0 -50 -74h-116zM177 100q33 0 68 36v136q-24 -11 -39.5 -20.5 t-32.5 -24.5t-25.5 -35t-8.5 -45q0 -47 38 -47zM340 587h-69l-66 54l-67 -54h-70l81 128h108z" />
<glyph unicode="&#xe3;" horiz-adv-x="402" d="M35 370q5 80 47 125t123 45q155 0 155 -168v-299q0 -29 7 -73h-114q-4 19 -6 53h-5q-36 -32 -63 -45.5t-62 -13.5q-43 0 -71 33.5t-28 88.5q0 66 31.5 112.5t108.5 82.5q33 15 87 36v36q0 61 -44 61q-46 0 -50 -74h-116zM177 100q33 0 68 36v136q-24 -11 -39.5 -20.5 t-32.5 -24.5t-25.5 -35t-8.5 -45q0 -47 38 -47zM57 583q0 136 84 136q33 0 72 -27q31 -22 44 -22q25 0 25 45h65q0 -71 -24 -103.5t-62 -32.5q-29 0 -65 23q-5 3 -13.5 9t-13 9t-11 5.5t-11.5 2.5q-27 0 -27 -45h-63z" />
<glyph unicode="&#xe4;" horiz-adv-x="402" d="M35 370q5 80 47 125t123 45q155 0 155 -168v-299q0 -29 7 -73h-114q-4 19 -6 53h-5q-36 -32 -63 -45.5t-62 -13.5q-43 0 -71 33.5t-28 88.5q0 66 31.5 112.5t108.5 82.5q33 15 87 36v36q0 61 -44 61q-46 0 -50 -74h-116zM177 100q33 0 68 36v136q-24 -11 -39.5 -20.5 t-32.5 -24.5t-25.5 -35t-8.5 -45q0 -47 38 -47zM228 615v100h114v-100h-114zM65 615v100h114v-100h-114z" />
<glyph unicode="&#xe5;" horiz-adv-x="402" d="M35 370q5 80 47 125t123 45q155 0 155 -168v-299q0 -29 7 -73h-114q-4 19 -6 53h-5q-36 -32 -63 -45.5t-62 -13.5q-43 0 -71 33.5t-28 88.5q0 66 31.5 112.5t108.5 82.5q33 15 87 36v36q0 61 -44 61q-46 0 -50 -74h-116zM177 100q33 0 68 36v136q-24 -11 -39.5 -20.5 t-32.5 -24.5t-25.5 -35t-8.5 -45q0 -47 38 -47zM314 669q0 -41 -28.5 -69t-80.5 -28t-81 28t-29 69q0 42 29 71.5t81 29.5q51 0 80 -29.5t29 -71.5zM249 669q0 19 -12 32t-32 13q-22 0 -34.5 -13t-12.5 -32q0 -17 12.5 -29.5t34.5 -12.5q20 0 32 12.5t12 29.5z" />
<glyph unicode="&#xe6;" horiz-adv-x="601" d="M408 -10q-74 0 -111 34q-21 20 -36 52h-4q-61 -82 -136 -82q-47 0 -75 33t-28 94q0 125 139 190q22 10 88 36v36q0 61 -44 61q-46 0 -50 -74h-116q5 80 46.5 125t121.5 45q64 0 103 -31h2q31 31 102 31q68 0 107 -35q31 -28 42.5 -76.5t11.5 -128.5v-58h-211v-34v-35.5 t1.5 -28t4.5 -24t8.5 -16t14 -11.5t20.5 -3q18 0 29 8t15 24.5t5 28t1 31.5v2h112v-2q0 -110 -54 -158q-37 -34 -109 -34zM177 100q33 0 68 36v136q-49 -24 -77.5 -51.5t-28.5 -72.5q0 -48 38 -48zM360 330v-3h96v3q0 30 -1 44.5t-5 32.5t-14.5 25.5t-28.5 7.5q-17 0 -27 -7 t-14 -25t-5 -32.5t-1 -45.5z" />
<glyph unicode="&#xe7;" horiz-adv-x="383" d="M245 206h112v-2q0 -132 -52 -179q-29 -26 -75 -33l-7 -32q71 -8 71 -62q0 -73 -135 -73q-45 0 -81 12l6 56q36 -11 71 -11q42 0 42 20q0 17 -29 17h-27l15 74q-47 7 -71 31q-53 47 -53 206v70q0 159 53 206q38 34 109 34q73 0 111 -35q49 -45 49 -168v-2h-110v2 q0 27 -1 40.5t-5 30.5t-14.5 24.5t-28.5 7.5q-12 0 -20.5 -3t-13.5 -12t-8 -16.5t-4.5 -24.5t-1.5 -28v-34v-114q0 -34 1 -49.5t5 -34.5t14.5 -26.5t27.5 -7.5q15 0 24.5 6.5t14.5 15t7.5 26.5t3 30t0.5 36v2z" />
<glyph unicode="&#xe8;" horiz-adv-x="388" d="M358 242h-211v-34v-35.5t1.5 -28.5t4.5 -24t8.5 -15.5t14 -11.5t20.5 -3q14 0 24 6.5t15 14.5t7.5 23t3 23.5t0.5 24.5v2h112v-2q0 -110 -54 -158q-37 -34 -110 -34q-72 0 -109 34q-31 28 -42 76.5t-11 129.5v70q0 80 11 128.5t42 76.5q38 35 110 35q71 0 109 -35 q31 -28 42.5 -76.5t11.5 -128.5v-58zM147 330v-3h96v3q0 30 -1 44.5t-5 32.5t-14.5 25.5t-28.5 7.5q-17 0 -27 -7t-14 -25t-5 -32.5t-1 -45.5zM269 587h-86l-133 128h143z" />
<glyph unicode="&#xe9;" horiz-adv-x="388" d="M358 242h-211v-34v-35.5t1.5 -28.5t4.5 -24t8.5 -15.5t14 -11.5t20.5 -3q14 0 24 6.5t15 14.5t7.5 23t3 23.5t0.5 24.5v2h112v-2q0 -110 -54 -158q-37 -34 -110 -34q-72 0 -109 34q-31 28 -42 76.5t-11 129.5v70q0 80 11 128.5t42 76.5q38 35 110 35q71 0 109 -35 q31 -28 42.5 -76.5t11.5 -128.5v-58zM147 330v-3h96v3q0 30 -1 44.5t-5 32.5t-14.5 25.5t-28.5 7.5q-17 0 -27 -7t-14 -25t-5 -32.5t-1 -45.5zM206 587h-85l77 128h141z" />
<glyph unicode="&#xea;" horiz-adv-x="388" d="M358 242h-211v-34v-35.5t1.5 -28.5t4.5 -24t8.5 -15.5t14 -11.5t20.5 -3q14 0 24 6.5t15 14.5t7.5 23t3 23.5t0.5 24.5v2h112v-2q0 -110 -54 -158q-37 -34 -110 -34q-72 0 -109 34q-31 28 -42 76.5t-11 129.5v70q0 80 11 128.5t42 76.5q38 35 110 35q71 0 109 -35 q31 -28 42.5 -76.5t11.5 -128.5v-58zM147 330v-3h96v3q0 30 -1 44.5t-5 32.5t-14.5 25.5t-28.5 7.5q-17 0 -27 -7t-14 -25t-5 -32.5t-1 -45.5zM331 587h-69l-66 54l-67 -54h-70l81 128h108z" />
<glyph unicode="&#xeb;" horiz-adv-x="388" d="M358 242h-211v-34v-35.5t1.5 -28.5t4.5 -24t8.5 -15.5t14 -11.5t20.5 -3q14 0 24 6.5t15 14.5t7.5 23t3 23.5t0.5 24.5v2h112v-2q0 -110 -54 -158q-37 -34 -110 -34q-72 0 -109 34q-31 28 -42 76.5t-11 129.5v70q0 80 11 128.5t42 76.5q38 35 110 35q71 0 109 -35 q31 -28 42.5 -76.5t11.5 -128.5v-58zM147 330v-3h96v3q0 30 -1 44.5t-5 32.5t-14.5 25.5t-28.5 7.5q-17 0 -27 -7t-14 -25t-5 -32.5t-1 -45.5zM219 615v100h114v-100h-114zM56 615v100h114v-100h-114z" />
<glyph unicode="&#xec;" horiz-adv-x="209" d="M176 587h-86l-133 128h143zM46 530h117l-1 -73v-384l1 -73h-117l1 73v384z" />
<glyph unicode="&#xed;" horiz-adv-x="209" d="M114 587h-85l78 128h141zM46 530h117l-1 -73v-384l1 -73h-117l1 73v384z" />
<glyph unicode="&#xee;" horiz-adv-x="209" d="M239 587h-70l-66 54l-67 -54h-69l81 128h107zM46 530h117l-1 -73v-384l1 -73h-117l1 73v384z" />
<glyph unicode="&#xef;" horiz-adv-x="209" d="M127 615v100h114v-100h-114zM-37 615v100h114v-100h-114zM46 530h117l-1 -73v-384l1 -73h-117l1 73v384z" />
<glyph unicode="&#xf0;" horiz-adv-x="392" d="M358 696v-78l-61 -12q61 -120 61 -279v-97q0 -80 -11.5 -129t-42.5 -77q-37 -34 -110 -34q-72 0 -109 34q-31 28 -42 76.5t-11 129.5v70q0 80 11 128.5t42 76.5q38 35 96 35q26 0 41 -7h4q-11 27 -26 53l-129 -25v78l82 16q-13 17 -32 38t-20 22l111 10q19 -20 41 -50z M195 90q17 0 27.5 7t14.5 26t5 34.5t1 50.5v114q0 35 -1 50.5t-5 34.5t-14.5 26t-27.5 7t-27.5 -7t-14.5 -26t-5 -34.5t-1 -50.5v-114q0 -35 1 -50.5t5 -34.5t14.5 -26t27.5 -7z" />
<glyph unicode="&#xf1;" horiz-adv-x="412" d="M254 73v315q0 18 -1 25.5t-7 14.5t-19 7q-21 0 -65 -29v-333l1 -73h-117l1 73v384l-1 73h110v-60h1q39 36 67.5 52t59.5 16q41 0 63 -27t22 -76v-362l1 -73h-117zM58 583q0 136 84 136q33 0 72 -27q31 -22 44 -22q25 0 25 45h65q0 -71 -24 -103.5t-62 -32.5q-29 0 -65 23 q-5 3 -13.5 9t-13 9t-11 5.5t-11.5 2.5q-27 0 -27 -45h-63z" />
<glyph unicode="&#xf2;" horiz-adv-x="390" d="M195 -10q-72 0 -110 35q-31 28 -42 76.5t-11 128.5v70q0 80 11 128.5t42 76.5q40 35 110 35q71 0 109 -35q31 -28 42.5 -76.5t11.5 -128.5v-70q0 -79 -11.5 -127.5t-42.5 -77.5q-36 -35 -109 -35zM195 90q17 0 27.5 7t14.5 26t5 34.5t1 50.5v114q0 35 -1 50.5t-5 34.5 t-14.5 26t-27.5 7t-27.5 -7t-14.5 -26t-5 -34.5t-1 -50.5v-114q0 -35 1 -50.5t5 -34.5t14.5 -26t27.5 -7zM269 587h-86l-133 128h143z" />
<glyph unicode="&#xf3;" horiz-adv-x="390" d="M195 -10q-72 0 -110 35q-31 28 -42 76.5t-11 128.5v70q0 80 11 128.5t42 76.5q40 35 110 35q71 0 109 -35q31 -28 42.5 -76.5t11.5 -128.5v-70q0 -79 -11.5 -127.5t-42.5 -77.5q-36 -35 -109 -35zM195 90q17 0 27.5 7t14.5 26t5 34.5t1 50.5v114q0 35 -1 50.5t-5 34.5 t-14.5 26t-27.5 7t-27.5 -7t-14.5 -26t-5 -34.5t-1 -50.5v-114q0 -35 1 -50.5t5 -34.5t14.5 -26t27.5 -7zM206 587h-85l77 128h141z" />
<glyph unicode="&#xf4;" horiz-adv-x="390" d="M195 -10q-72 0 -110 35q-31 28 -42 76.5t-11 128.5v70q0 80 11 128.5t42 76.5q40 35 110 35q71 0 109 -35q31 -28 42.5 -76.5t11.5 -128.5v-70q0 -79 -11.5 -127.5t-42.5 -77.5q-36 -35 -109 -35zM195 90q17 0 27.5 7t14.5 26t5 34.5t1 50.5v114q0 35 -1 50.5t-5 34.5 t-14.5 26t-27.5 7t-27.5 -7t-14.5 -26t-5 -34.5t-1 -50.5v-114q0 -35 1 -50.5t5 -34.5t14.5 -26t27.5 -7zM331 587h-69l-66 54l-67 -54h-70l81 128h108z" />
<glyph unicode="&#xf5;" horiz-adv-x="390" d="M195 -10q-72 0 -110 35q-31 28 -42 76.5t-11 128.5v70q0 80 11 128.5t42 76.5q40 35 110 35q71 0 109 -35q31 -28 42.5 -76.5t11.5 -128.5v-70q0 -79 -11.5 -127.5t-42.5 -77.5q-36 -35 -109 -35zM195 90q17 0 27.5 7t14.5 26t5 34.5t1 50.5v114q0 35 -1 50.5t-5 34.5 t-14.5 26t-27.5 7t-27.5 -7t-14.5 -26t-5 -34.5t-1 -50.5v-114q0 -35 1 -50.5t5 -34.5t14.5 -26t27.5 -7zM48 583q0 136 84 136q33 0 72 -27q31 -22 44 -22q25 0 25 45h65q0 -71 -24 -103.5t-62 -32.5q-29 0 -65 23q-5 3 -13.5 9t-13 9t-11 5.5t-11.5 2.5q-27 0 -27 -45h-63 z" />
<glyph unicode="&#xf6;" horiz-adv-x="390" d="M195 -10q-72 0 -110 35q-31 28 -42 76.5t-11 128.5v70q0 80 11 128.5t42 76.5q40 35 110 35q71 0 109 -35q31 -28 42.5 -76.5t11.5 -128.5v-70q0 -79 -11.5 -127.5t-42.5 -77.5q-36 -35 -109 -35zM195 90q17 0 27.5 7t14.5 26t5 34.5t1 50.5v114q0 35 -1 50.5t-5 34.5 t-14.5 26t-27.5 7t-27.5 -7t-14.5 -26t-5 -34.5t-1 -50.5v-114q0 -35 1 -50.5t5 -34.5t14.5 -26t27.5 -7zM219 615v100h114v-100h-114zM56 615v100h114v-100h-114z" />
<glyph unicode="&#xf7;" horiz-adv-x="535" d="M32 245v108h470v-108h-470zM197 41v114h141v-114h-141zM197 444v114h141v-114h-141z" />
<glyph unicode="&#xf8;" horiz-adv-x="390" d="M160 -75h-89l21 94q-27 21 -41 60.5t-16.5 70.5t-2.5 80v70q0 80 11 128.5t42 76.5q40 35 110 35q15 0 24 -1l10 40h88l-18 -70q35 -29 47 -78t12 -131v-70q0 -79 -11.5 -127.5t-42.5 -77.5q-36 -35 -105 -35q-16 0 -25 1zM146 323v-97l95 172q-8 45 -46 45 q-12 0 -20.5 -3t-14 -12t-8.5 -16.5t-4.5 -24.5t-1.5 -28.5v-35.5zM195 86q12 0 20.5 3t14 12t8.5 17t4.5 25t1.5 28.5v35.5v90l-94 -171q8 -40 45 -40z" />
<glyph unicode="&#xf9;" horiz-adv-x="412" d="M158 457v-315q0 -18 1 -25.5t7 -14.5t19 -7q21 0 65 29v333l-1 73h117l-1 -73v-384l1 -73h-110v60h-1q-39 -36 -67.5 -52t-59.5 -16q-41 0 -63 27t-22 76v362l-1 73h117zM280 587h-86l-133 128h143z" />
<glyph unicode="&#xfa;" horiz-adv-x="412" d="M158 457v-315q0 -18 1 -25.5t7 -14.5t19 -7q21 0 65 29v333l-1 73h117l-1 -73v-384l1 -73h-110v60h-1q-39 -36 -67.5 -52t-59.5 -16q-41 0 -63 27t-22 76v362l-1 73h117zM217 587h-85l77 128h141z" />
<glyph unicode="&#xfb;" horiz-adv-x="412" d="M158 457v-315q0 -18 1 -25.5t7 -14.5t19 -7q21 0 65 29v333l-1 73h117l-1 -73v-384l1 -73h-110v60h-1q-39 -36 -67.5 -52t-59.5 -16q-41 0 -63 27t-22 76v362l-1 73h117zM342 587h-69l-66 54l-67 -54h-70l81 128h108z" />
<glyph unicode="&#xfc;" horiz-adv-x="412" d="M158 457v-315q0 -18 1 -25.5t7 -14.5t19 -7q21 0 65 29v333l-1 73h117l-1 -73v-384l1 -73h-110v60h-1q-39 -36 -67.5 -52t-59.5 -16q-41 0 -63 27t-22 76v362l-1 73h117zM230 615v100h114v-100h-114zM67 615v100h114v-100h-114z" />
<glyph unicode="&#xfd;" horiz-adv-x="363" d="M118 34l-117 496h115l52 -250l12 -70h4q4 24 13 71l50 249h113l-136 -582q-27 -112 -148 -112q-25 0 -65 5v104q26 -2 37 -2q91 0 70 91zM194 587h-85l77 128h141z" />
<glyph unicode="&#xfe;" horiz-adv-x="407" d="M47 642l-1 73h117l-1 -73v-152h5q36 28 57 38t48 10q25 0 43 -7.5t29 -24.5t17.5 -33t9 -44.5t3 -46t0.5 -50.5v-123q0 -27 -0.5 -41.5t-2.5 -41t-5.5 -42t-11.5 -35.5t-19.5 -30.5t-29 -18.5t-39.5 -8q-45 0 -104 46v-129l1 -73h-117l1 73v733zM213 440q-17 0 -51 -18 v-320q29 -12 46 -12q51 0 51 97v167q0 86 -46 86z" />
<glyph unicode="&#xff;" horiz-adv-x="363" d="M118 34l-117 496h115l52 -250l12 -70h4q4 24 13 71l50 249h113l-136 -582q-27 -112 -148 -112q-25 0 -65 5v104q26 -2 37 -2q91 0 70 91zM207 615v100h114v-100h-114zM44 615v100h114v-100h-114z" />
<glyph unicode="&#x152;" horiz-adv-x="652" d="M578 430v-114h-154v-204h200v-112h-325v39h-4q-35 -39 -92 -39q-68 0 -104 41q-31 35 -41.5 91t-10.5 144v163q0 56 3 94t18.5 84.5t43.5 69.5q35 28 91 28q54 0 92 -39h4v39h321v-112h-196v-173h154zM236 107q18 0 30 7t18 16.5t9 29.5t3.5 34t0.5 43v241q0 29 -0.5 43 t-3.5 34t-9 29.5t-18 16.5t-30 7q-17 0 -29 -7t-18 -16.5t-9 -29.5t-3.5 -34t-0.5 -43v-241q0 -29 0.5 -43t3.5 -34t9 -29.5t18 -16.5t29 -7z" />
<glyph unicode="&#x153;" horiz-adv-x="599" d="M408 -10q-67 0 -108 33h-1q-37 -33 -106 -33q-70 0 -108 34q-31 28 -42 76.5t-11 129.5v70q0 80 11 128.5t42 76.5q38 35 106 35q60 0 109 -33h2q40 33 107 33q69 0 107 -35q30 -28 41.5 -77t11.5 -128v-58h-211v-36q0 -28 0.5 -41t3 -31t7.5 -25.5t15 -13t25 -5.5 q16 0 26.5 8t15 23.5t5.5 28t1 32.5v2h112v-2q0 -111 -53 -158q-38 -34 -108 -34zM195 90q17 0 27.5 7t14.5 26t5 34.5t1 50.5v114q0 35 -1 50.5t-5 34.5t-14.5 26t-27.5 7t-27.5 -7t-14.5 -26t-5 -34.5t-1 -50.5v-114q0 -35 1 -50.5t5 -34.5t14.5 -26t27.5 -7zM358 330v-3 h96v3q0 30 -1 44.5t-5 32.5t-14.5 25.5t-28.5 7.5q-17 0 -27 -7t-14 -25t-5 -32.5t-1 -45.5z" />
<glyph unicode="&#x178;" horiz-adv-x="421" d="M129 715l82 -258h4l82 258h126l-147 -422v-220l1 -73h-130l1 73v220l-148 422h129zM237 762v100h114v-100h-114zM74 762v100h114v-100h-114z" />
<glyph unicode="&#x2c6;" horiz-adv-x="341" d="M306 587h-69l-66 54l-67 -54h-70l81 128h108z" />
<glyph unicode="&#x2dc;" horiz-adv-x="341" d="M23 583q0 136 84 136q33 0 72 -27q31 -22 44 -22q25 0 25 45h65q0 -71 -24 -103.5t-62 -32.5q-29 0 -65 23q-5 3 -13.5 9t-13 9t-11 5.5t-11.5 2.5q-27 0 -27 -45h-63z" />
<glyph unicode="&#x2000;" horiz-adv-x="469" />
<glyph unicode="&#x2001;" horiz-adv-x="939" />
<glyph unicode="&#x2002;" horiz-adv-x="469" />
<glyph unicode="&#x2003;" horiz-adv-x="939" />
<glyph unicode="&#x2004;" horiz-adv-x="313" />
<glyph unicode="&#x2005;" horiz-adv-x="234" />
<glyph unicode="&#x2006;" horiz-adv-x="156" />
<glyph unicode="&#x2007;" horiz-adv-x="156" />
<glyph unicode="&#x2008;" horiz-adv-x="117" />
<glyph unicode="&#x2009;" horiz-adv-x="187" />
<glyph unicode="&#x200a;" horiz-adv-x="52" />
<glyph unicode="&#x2010;" horiz-adv-x="281" d="M43 240v118h195v-118h-195z" />
<glyph unicode="&#x2011;" horiz-adv-x="281" d="M43 240v118h195v-118h-195z" />
<glyph unicode="&#x2012;" horiz-adv-x="281" d="M43 240v118h195v-118h-195z" />
<glyph unicode="&#x2013;" horiz-adv-x="351" d="M43 245v108h265v-108h-265z" />
<glyph unicode="&#x2014;" horiz-adv-x="591" d="M43 245v108h505v-108h-505z" />
<glyph unicode="&#x2018;" horiz-adv-x="193" d="M156 590v-116h-122v115l59 126h61l-37 -125h39z" />
<glyph unicode="&#x2019;" horiz-adv-x="193" d="M37 599v116h123v-115l-59 -126h-61l37 125h-40z" />
<glyph unicode="&#x201a;" horiz-adv-x="200" d="M38 0v116h123v-115l-59 -126h-61l37 125h-40z" />
<glyph unicode="&#x201c;" horiz-adv-x="363" d="M156 590v-116h-122v115l59 126h61l-37 -125h39zM326 590v-116h-122v115l59 126h61l-38 -125h40z" />
<glyph unicode="&#x201d;" horiz-adv-x="363" d="M207 599v116h123v-115l-59 -126h-61l37 125h-40zM37 599v116h123v-115l-59 -126h-61l37 125h-40z" />
<glyph unicode="&#x201e;" horiz-adv-x="370" d="M208 0v116h123v-115l-59 -126h-61l37 125h-40zM38 0v116h123v-115l-59 -126h-61l37 125h-40z" />
<glyph unicode="&#x2022;" horiz-adv-x="385" d="M43 300q0 63 43 106.5t106 43.5q62 0 106 -44t44 -106q0 -63 -43.5 -106t-106.5 -43q-64 0 -106.5 42.5t-42.5 106.5z" />
<glyph unicode="&#x2026;" horiz-adv-x="595" d="M39 0v116h119v-116h-119zM238 0v116h119v-116h-119zM437 0v116h118v-116h-118z" />
<glyph unicode="&#x202f;" horiz-adv-x="187" />
<glyph unicode="&#x2039;" horiz-adv-x="276" d="M241 131h-91l-131 161v24l129 160h93l-100 -173z" />
<glyph unicode="&#x203a;" horiz-adv-x="276" d="M125 131h-91l100 172l-100 173h93l130 -160v-24z" />
<glyph unicode="&#x205f;" horiz-adv-x="234" />
<glyph unicode="&#x20ac;" horiz-adv-x="496" d="M25 392v79h72q1 91 15.5 137t41.5 73q46 46 128 46q79 0 124 -42q33 -31 46 -73.5t13 -75.5v-2h-121v2q0 77 -62 77q-17 0 -28.5 -7t-17.5 -15.5t-9 -29t-3.5 -34.5t-0.5 -44v-12h177v-79h-177v-47h177v-79h-177v-34q0 -29 0.5 -43t3.5 -34t9 -29.5t17.5 -16.5t28.5 -7 q62 0 62 94v1h121v-1q0 -112 -59 -167q-44 -41 -121 -41q-84 0 -130 44q-58 56 -58 233v1h-72v79h72v47h-72z" />
<glyph unicode="&#x2122;" horiz-adv-x="526" d="M338 429l-32 130q-3 11 -8 36h-2q0 -5 0.5 -17.5t0.5 -18.5v-130h-58v286h86l30 -115q2 -7 8 -37h2q0 2 2.5 16t4.5 21l29 115h86v-286h-62v130q0 6 0.5 18.5t0.5 17.5h-2q-4 -20 -8 -36l-33 -130h-45zM211 659h-52v-230h-67v230h-53v56h172v-56z" />
<glyph unicode="&#x25fc;" horiz-adv-x="530" d="M0 530h530v-530h-530v530z" />
</font>
</defs>
</svg>
